a b c d e f g h i j k l m n o p q r s t u v w x y z 0-9

F2: Fun and Frustration (2019) Telugu - 1080p - PreDVD - x264 - MP3-TMV

  • Views: 5
  • Author: stev
  • Date: 12-01-2019, 20:53
  • Category: Telugu Movies
  • Rating:
    Description of the movie:
    F2: Fun and Frustration (2019) Telugu - 1080p - PreDVD - x264 - MP3-TMV





    Format                                   : Matroska
    Format version                           : Version 4
    File size                                : 2.34 GiB
    Duration                                 : 2 h 32 min
    Overall bit rate mode                    : Variable
    Overall bit rate                         : 2 196 kb/s
    Encoded date                             : UTC 2019-01-12 10:14:27
    Writing application                      : mkvmerge v6.0.0 ('Coming Up For Air') built on Jan 20 2013 09:52:00
    Writing library                          : libebml v1.3.0 + libmatroska v1.4.0
    
    Video
    ID                                       : 1
    Format                                   : AVC
    Format/Info                              : Advanced Video Codec
    Format profile                           : High@L4
    Format settings                          : CABAC / 4 Ref Frames
    Format settings, CABAC                   : Yes
    Format settings, RefFrames               : 4 frames
    Codec ID                                 : V_MPEG4/ISO/AVC
    Duration                                 : 2 h 32 min
    Bit rate                                 : 2 096 kb/s
    Width                                    : 1 920 pixels
    Height                                   : 816 pixels
    Display aspect ratio                     : 2.35:1
    Frame rate mode                          : Constant
    Frame rate                               : 23.976 (24000/1001) FPS
    Color space                              : YUV
    Chroma subsampling                       : 4:2:0
    Bit depth                                : 8 bits
    Scan type                                : Progressive
    Bits/(Pixel*Frame)                       : 0.056
    Stream size                              : 2.19 GiB (94%)
    Writing library                          : x264 core 157 r2935 545de2f
    Encoding settings                        : cabac=1 / ref=3 / deblock=1:0:0 / analyse=0x3:0x113 / me=hex / subme=7 / psy=1 / psy_rd=1.00:0.00 / mixed_ref=1 / me_range=16 / chroma_me=1 / trellis=1 / 8x8dct=1 / cqm=0 / deadzone=21,11 / fast_pskip=1 / chroma_qp_offset=-2 / threads=16 / lookahead_threads=2 / sliced_threads=0 / nr=0 / decimate=1 / interlaced=0 / bluray_compat=0 / constrained_intra=0 / bframes=3 / b_pyramid=2 / b_adapt=1 / b_bias=0 / direct=1 / weightb=1 / open_gop=0 / weightp=2 / keyint=240 / keyint_min=23 / scenecut=40 / intra_refresh=0 / rc_lookahead=40 / rc=abr / mbtree=1 / bitrate=2096 / ratetol=1.0 / qcomp=0.60 / qpmin=0 / qpmax=69 / qpstep=4 / ip_ratio=1.40 / aq=1:1.00
    Language                                 : Telugu
    Default                                  : Yes
    Forced                                   : No
    Statistics Tags Issue                    : mkvmerge v7.1.0 ('Good Love') 32bit built on Jul 27 2014 12:59:18 2019-01-12 09:59:43 / mkvmerge v6.0.0 ('Coming Up For Air') built on Jan 20 2013 09:52:00 2019-01-12 10:14:27
    FromStats_BitRate                        : 2093395
    FromStats_Duration                       : 02:23:28.016000000
    FromStats_FrameCount                     : 206386
    FromStats_StreamSize                     : 2252497642
    
    Audio
    ID                                       : 2
    Format                                   : MPEG Audio
    Format version                           : Version 1
    Format profile                           : Layer 3
    Format settings                          : Joint stereo / MS Stereo
    Codec ID                                 : A_MPEG/L3
    Codec ID/Hint                            : MP3
    Duration                                 : 2 h 29 min
    Bit rate mode                            : Variable
    Bit rate                                 : 96.0 kb/s
    Channel(s)                               : 2 channels
    Sampling rate                            : 44.1 kHz
    Frame rate                               : 38.281 FPS (1152 SPF)
    Compression mode                         : Lossy
    Stream size                              : 103 MiB (4%)
    Writing library                          : LAME3.99r
    Encoding settings                        : -m j -V 4 -q 3 -lowpass 15.1 --abr 96
    Language                                 : Telugu
    Default                                  : Yes
    Forced                                   : No
    Statistics Tags Issue                    : mkvmerge v7.1.0 ('Good Love') 32bit built on Jul 27 2014 12:59:18 2019-01-12 09:59:43 / mkvmerge v6.0.0 ('Coming Up For Air') built on Jan 20 2013 09:52:00 2019-01-12 10:14:27
    FromStats_BitRate                        : 100350
    FromStats_Duration                       : 02:23:27.974000000
    FromStats_FrameCount                     : 329524
    FromStats_StreamSize                     : 107976351
    
    

    F2: Fun and Frustration (2019) Telugu - 1080p - PreDVD - x264 - MP3-TMVF2: Fun and Frustration (2019) Telugu - 1080p - PreDVD - x264 - MP3-TMVF2: Fun and Frustration (2019) Telugu - 1080p - PreDVD - x264 - MP3-TMVF2: Fun and Frustration (2019) Telugu - 1080p - PreDVD - x264 - MP3-TMVF2: Fun and Frustration (2019) Telugu - 1080p - PreDVD - x264 - MP3-TMVF2: Fun and Frustration (2019) Telugu - 1080p - PreDVD - x264 - MP3-TMVF2: Fun and Frustration (2019) Telugu - 1080p - PreDVD - x264 - MP3-TMVF2: Fun and Frustration (2019) Telugu - 1080p - PreDVD - x264 - MP3-TMVF2: Fun and Frustration (2019) Telugu - 1080p - PreDVD - x264 - MP3-TMVF2: Fun and Frustration (2019) Telugu - 1080p - PreDVD - x264 - MP3-TMV

    SINGLE DIRECT FAST LINKS

    https://www.heroupload.com/1d0cf65eeaf28526/F2.Fun.and.Frustration.2019.Telugu.PreDVD.1080p.x264-TMV.mkv


    700MB LINKS

    
    https://www.heroupload.com/25b718eb63441b27/F2.Fun.and.Frustration.2019.Telugu.PreDVD.1080p.x264-TMV.part1.rar
    https://www.heroupload.com/2578e24719336037/F2.Fun.and.Frustration.2019.Telugu.PreDVD.1080p.x264-TMV.part2.rar
    https://www.heroupload.com/6ae6feb6a32b542c/F2.Fun.and.Frustration.2019.Telugu.PreDVD.1080p.x264-TMV.part3.rar
    https://www.heroupload.com/e7ebdc5d6f1d2fd1/F2.Fun.and.Frustration.2019.Telugu.PreDVD.1080p.x264-TMV.part4.rar


    Buy Premium From My Links & Support Me

    Comments

    Add Comment!


    Add comment

    Name:*
    E-Mail:
    Comment:
    • winkwinkedsmileam
      belayfeelfellowlaughing
      lollovenorecourse
      requestsadtonguewassat
      cryingwhatbullyangry
    Security Code: *
    reload, if the code cannot be seen