a b c d e f g h i j k l m n o p q r s t u v w x y z 0-9

Petta (2019) Tamil - 720p - PreDVDRip - x264 - MP3-MTR

  • Views: 5
  • Author: stev
  • Date: 10-01-2019, 18:05
  • Category: Tamil Movies
  • Rating:
    Description of the movie:
    Petta (2019) Tamil - 720p - PreDVDRip - x264 - MP3-MTR





    Format                                   : Matroska
    Format version                           : Version 4
    File size                                : 1.44 GiB
    Duration                                 : 2 h 48 min
    Overall bit rate mode                    : Variable
    Overall bit rate                         : 1 227 kb/s
    Encoded date                             : UTC 2019-01-10 14:10:38
    Writing application                      : mkvmerge v29.0.0 ('Like It Or Not') 32-bit
    Writing library                          : libebml v1.3.6 + libmatroska v1.4.9
    
    Video
    ID                                       : 1
    Format                                   : AVC
    Format/Info                              : Advanced Video Codec
    Format profile                           : High@L5.1
    Format settings                          : CABAC / 4 Ref Frames
    Format settings, CABAC                   : Yes
    Format settings, RefFrames               : 4 frames
    Codec ID                                 : V_MPEG4/ISO/AVC
    Duration                                 : 2 h 48 min
    Bit rate                                 : 1 101 kb/s
    Width                                    : 1 280 pixels
    Height                                   : 544 pixels
    Display aspect ratio                     : 2.35:1
    Frame rate mode                          : Constant
    Frame rate                               : 25.000 FPS
    Color space                              : YUV
    Chroma subsampling                       : 4:2:0
    Bit depth                                : 8 bits
    Scan type                                : Progressive
    Bits/(Pixel*Frame)                       : 0.063
    Stream size                              : 1.30 GiB (90%)
    Writing library                          : x264 core 152 r2851 ba24899
    Encoding settings                        : cabac=1 / ref=1 / deblock=1:0:0 / analyse=0x3:0x113 / me=hex / subme=2 / psy=1 / psy_rd=1.00:0.00 / mixed_ref=0 / me_range=16 / chroma_me=1 / trellis=0 / 8x8dct=1 / cqm=0 / deadzone=21,11 / fast_pskip=1 / chroma_qp_offset=0 / threads=17 / lookahead_threads=4 / sliced_threads=0 / nr=0 / decimate=1 / interlaced=0 / bluray_compat=0 / constrained_intra=0 / bframes=3 / b_pyramid=2 / b_adapt=1 / b_bias=0 / direct=1 / weightb=1 / open_gop=0 / weightp=1 / keyint=250 / keyint_min=25 / scenecut=40 / intra_refresh=0 / rc_lookahead=10 / rc=abr / mbtree=1 / bitrate=1101 / ratetol=1.0 / qcomp=0.60 / qpmin=0 / qpmax=69 / qpstep=4 / vbv_maxrate=300000 / vbv_bufsize=300000 / nal_hrd=none / filler=0 / ip_ratio=1.40 / aq=1:1.00
    Language                                 : English
    Default                                  : Yes
    Forced                                   : No
    
    Audio
    ID                                       : 2
    Format                                   : MPEG Audio
    Format version                           : Version 2
    Format profile                           : Layer 3
    Format settings                          : Joint stereo / MS Stereo
    Codec ID                                 : A_MPEG/L3
    Codec ID/Hint                            : MP3
    Duration                                 : 2 h 48 min
    Bit rate mode                            : Variable
    Bit rate                                 : 124 kb/s
    Channel(s)                               : 2 channels
    Sampling rate                            : 22.05 kHz
    Frame rate                               : 38.280 FPS (576 SPF)
    Compression mode                         : Lossy
    Stream size                              : 149 MiB (10%)
    Language                                 : English
    Default                                  : Yes
    Forced                                   : No
    
    


    Petta (2019) Tamil - 720p - PreDVDRip - x264 - MP3-MTRPetta (2019) Tamil - 720p - PreDVDRip - x264 - MP3-MTRPetta (2019) Tamil - 720p - PreDVDRip - x264 - MP3-MTRPetta (2019) Tamil - 720p - PreDVDRip - x264 - MP3-MTRPetta (2019) Tamil - 720p - PreDVDRip - x264 - MP3-MTRPetta (2019) Tamil - 720p - PreDVDRip - x264 - MP3-MTRPetta (2019) Tamil - 720p - PreDVDRip - x264 - MP3-MTRPetta (2019) Tamil - 720p - PreDVDRip - x264 - MP3-MTR

    SINGLE DIRECT FAST LINKS

    
    https://www.heroupload.com/20ae5d02415e4180/Petta.2019.Tamil.720p.PreDVDRip.x264.MP3-MTR.mkv




    Buy Premium From My Links & Support Me

    Comments

    Add Comment!


    Add comment

    Name:*
    E-Mail:
    Comment:
    • winkwinkedsmileam
      belayfeelfellowlaughing
      lollovenorecourse
      requestsadtonguewassat
      cryingwhatbullyangry
    Security Code: *
    reload, if the code cannot be seen