a b c d e f g h i j k l m n o p q r s t u v w x y z 0-9

N.T.R: Kathanayakudu (2019) Telugu - 720p - PreDVD - x264 - AAC-TMV

  • Views: 15
  • Author: stev
  • Date: 10-01-2019, 17:33
  • Category: Telugu Movies
  • Rating:
    Description of the movie:
    N.T.R: Kathanayakudu (2019) Telugu - 720p - PreDVD - x264 - AAC-TMV






    Format                                   : Matroska
    Format version                           : Version 4
    File size                                : 1.38 GiB
    Duration                                 : 2 h 46 min
    Overall bit rate                         : 1 181 kb/s
    Encoded date                             : UTC 2019-01-10 13:46:58
    Writing application                      : mkvmerge v29.0.0 ('Like It Or Not') 32-bit
    Writing library                          : libebml v1.3.6 + libmatroska v1.4.9
    
    Video
    ID                                       : 1
    Format                                   : AVC
    Format/Info                              : Advanced Video Codec
    Format profile                           : High@L3.2
    Format settings                          : CABAC / 4 Ref Frames
    Format settings, CABAC                   : Yes
    Format settings, RefFrames               : 4 frames
    Codec ID                                 : V_MPEG4/ISO/AVC
    Duration                                 : 2 h 46 min
    Bit rate                                 : 1 092 kb/s
    Width                                    : 1 280 pixels
    Height                                   : 544 pixels
    Display aspect ratio                     : 2.35:1
    Frame rate mode                          : Constant
    Frame rate                               : 23.976 (24000/1001) FPS
    Color space                              : YUV
    Chroma subsampling                       : 4:2:0
    Bit depth                                : 8 bits
    Scan type                                : Progressive
    Bits/(Pixel*Frame)                       : 0.065
    Stream size                              : 1.28 GiB (93%)
    Writing library                          : x264 core 155 r2901 7d0ff22
    Encoding settings                        : cabac=1 / ref=2 / deblock=1:0:0 / analyse=0x3:0x113 / me=hex / subme=6 / psy=1 / psy_rd=1.00:0.00 / mixed_ref=1 / me_range=16 / chroma_me=1 / trellis=1 / 8x8dct=1 / cqm=0 / deadzone=21,11 / fast_pskip=1 / chroma_qp_offset=-2 / threads=17 / lookahead_threads=2 / sliced_threads=0 / nr=0 / decimate=1 / interlaced=0 / bluray_compat=0 / constrained_intra=0 / bframes=3 / b_pyramid=2 / b_adapt=1 / b_bias=0 / direct=1 / weightb=1 / open_gop=0 / weightp=1 / keyint=240 / keyint_min=24 / scenecut=40 / intra_refresh=0 / rc_lookahead=30 / rc=abr / mbtree=1 / bitrate=1092 / ratetol=1.0 / qcomp=0.60 / qpmin=0 / qpmax=69 / qpstep=4 / vbv_maxrate=25000 / vbv_bufsize=25000 / nal_hrd=none / filler=0 / ip_ratio=1.40 / aq=1:1.00
    Language                                 : Telugu
    Default                                  : Yes
    Forced                                   : No
    Color range                              : Limited
    Color primaries                          : BT.709
    Transfer characteristics                 : BT.709
    Matrix coefficients                      : BT.709
    
    Audio
    ID                                       : 2
    Format                                   : AAC LC
    Format/Info                              : Advanced Audio Codec Low Complexity
    Codec ID                                 : A_AAC-2
    Duration                                 : 2 h 46 min
    Bit rate                                 : 80.3 kb/s
    Channel(s)                               : 2 channels
    Channel layout                           : L R
    Sampling rate                            : 44.1 kHz
    Frame rate                               : 43.066 FPS (1024 SPF)
    Compression mode                         : Lossy
    Stream size                              : 95.8 MiB (7%)
    Language                                 : Telugu
    Default                                  : Yes
    Forced                                   : No
    
    


    N.T.R: Kathanayakudu (2019) Telugu - 720p - PreDVD - x264 - AAC-TMVN.T.R: Kathanayakudu (2019) Telugu - 720p - PreDVD - x264 - AAC-TMVN.T.R: Kathanayakudu (2019) Telugu - 720p - PreDVD - x264 - AAC-TMVN.T.R: Kathanayakudu (2019) Telugu - 720p - PreDVD - x264 - AAC-TMVN.T.R: Kathanayakudu (2019) Telugu - 720p - PreDVD - x264 - AAC-TMVN.T.R: Kathanayakudu (2019) Telugu - 720p - PreDVD - x264 - AAC-TMVN.T.R: Kathanayakudu (2019) Telugu - 720p - PreDVD - x264 - AAC-TMVN.T.R: Kathanayakudu (2019) Telugu - 720p - PreDVD - x264 - AAC-TMVN.T.R: Kathanayakudu (2019) Telugu - 720p - PreDVD - x264 - AAC-TMVN.T.R: Kathanayakudu (2019) Telugu - 720p - PreDVD - x264 - AAC-TMVN.T.R: Kathanayakudu (2019) Telugu - 720p - PreDVD - x264 - AAC-TMVN.T.R: Kathanayakudu (2019) Telugu - 720p - PreDVD - x264 - AAC-TMVN.T.R: Kathanayakudu (2019) Telugu - 720p - PreDVD - x264 - AAC-TMVN.T.R: Kathanayakudu (2019) Telugu - 720p - PreDVD - x264 - AAC-TMVN.T.R: Kathanayakudu (2019) Telugu - 720p - PreDVD - x264 - AAC-TMVN.T.R: Kathanayakudu (2019) Telugu - 720p - PreDVD - x264 - AAC-TMV

    SINGLE DIRECT FAST LINKS

    
    https://www.heroupload.com/10ab34b38f1f7046/N.T.R.Kathanayakudu.2019.Telugu.PreDVD.720p.x264-TMV.mkv






    Buy Premium From My Links & Support Me

    Comments

    Add Comment!


    Add comment

    Name:*
    E-Mail:
    Comment:
    • winkwinkedsmileam
      belayfeelfellowlaughing
      lollovenorecourse
      requestsadtonguewassat
      cryingwhatbullyangry
    Security Code: *
    reload, if the code cannot be seen