a b c d e f g h i j k l m n o p q r s t u v w x y z 0-9

Gandii Baat (2019) Season 2 Complete - 720p - HDRip - x264 - AAC-AF Exclusive

  • Views: 5
  • Author: stev
  • Date: 10-01-2019, 17:25
  • Category: Indian TV Shows
  • Rating:
    Description of the movie:
    Gandii Baat (2019) Season 2 Complete - 720p - HDRip - x264 - AAC-AF Exclusive





    Format                                   : Matroska
    Format version                           : Version 4
    File size                                : 1.57 GiB
    Duration                                 : 3 h 7 min
    Overall bit rate                         : 1 194 kb/s
    Encoded date                             : UTC 2019-01-10 14:13:51
    Writing application                      : mkvmerge v29.0.0 ('Like It Or Not') 32-bit
    Writing library                          : libebml v1.3.6 + libmatroska v1.4.9
    
    Video
    ID                                       : 1
    Format                                   : AVC
    Format/Info                              : Advanced Video Codec
    Format profile                           : High@L3.2
    Format settings                          : CABAC / 4 Ref Frames
    Format settings, CABAC                   : Yes
    Format settings, RefFrames               : 4 frames
    Codec ID                                 : V_MPEG4/ISO/AVC
    Duration                                 : 3 h 7 min
    Bit rate                                 : 1 062 kb/s
    Width                                    : 1 280 pixels
    Height                                   : 544 pixels
    Display aspect ratio                     : 2.35:1
    Frame rate mode                          : Constant
    Frame rate                               : 25.000 FPS
    Color space                              : YUV
    Chroma subsampling                       : 4:2:0
    Bit depth                                : 8 bits
    Scan type                                : Progressive
    Bits/(Pixel*Frame)                       : 0.061
    Stream size                              : 1.40 GiB (89%)
    Writing library                          : x264 core 155 r2901 7d0ff22
    Encoding settings                        : cabac=1 / ref=2 / deblock=1:0:0 / analyse=0x3:0x113 / me=hex / subme=6 / psy=1 / psy_rd=1.00:0.00 / mixed_ref=1 / me_range=16 / chroma_me=1 / trellis=1 / 8x8dct=1 / cqm=0 / deadzone=21,11 / fast_pskip=1 / chroma_qp_offset=-2 / threads=12 / lookahead_threads=2 / sliced_threads=0 / nr=0 / decimate=1 / interlaced=0 / bluray_compat=0 / constrained_intra=0 / bframes=3 / b_pyramid=2 / b_adapt=1 / b_bias=0 / direct=1 / weightb=1 / open_gop=0 / weightp=1 / keyint=250 / keyint_min=25 / scenecut=40 / intra_refresh=0 / rc_lookahead=30 / rc=abr / mbtree=1 / bitrate=1062 / ratetol=1.0 / qcomp=0.60 / qpmin=0 / qpmax=69 / qpstep=4 / vbv_maxrate=25000 / vbv_bufsize=25000 / nal_hrd=none / filler=0 / ip_ratio=1.40 / aq=1:1.00
    Language                                 : Hindi
    Default                                  : Yes
    Forced                                   : No
    Color range                              : Limited
    Color primaries                          : BT.709
    Transfer characteristics                 : BT.709
    Matrix coefficients                      : BT.709
    
    Audio
    ID                                       : 2
    Format                                   : AAC LC
    Format/Info                              : Advanced Audio Codec Low Complexity
    Codec ID                                 : A_AAC-2
    Duration                                 : 3 h 7 min
    Bit rate                                 : 128 kb/s
    Channel(s)                               : 2 channels
    Channel layout                           : L R
    Sampling rate                            : 48.0 kHz
    Frame rate                               : 46.875 FPS (1024 SPF)
    Compression mode                         : Lossy
    Delay relative to video                  : -20 ms
    Stream size                              : 172 MiB (11%)
    Language                                 : Hindi
    Default                                  : Yes
    Forced                                   : No
    
    


    Gandii Baat (2019) Season 2 Complete - 720p - HDRip - x264 - AAC-AF Exclusive

    SINGLE DIRECT FAST LINKS


    
    https://www.heroupload.com/1703ecc5f5af6fc9/Gandii.Baat.2019.Season.2.Ep.01.04.Hindi.HDRip.720p.x264.AAC-Exclusive.mkv



    Buy Premium From My Links & Support Me

    Comments

    Add Comment!


    Add comment

    Name:*
    E-Mail:
    Comment:
    • winkwinkedsmileam
      belayfeelfellowlaughing
      lollovenorecourse
      requestsadtonguewassat
      cryingwhatbullyangry
    Security Code: *
    reload, if the code cannot be seen