Naa Nuvve (2018) Telugu - 720p - PreDVDRip - x264 - MP3-TMV
Naa Nuvve (2018) Telugu - 720p - PreDVDRip - x264 - MP3-TMV





General
Format                      : Matroska
Format version              : Version 4 / Version 2
File size                   : 1.42 GiB
Duration                    : 1 h 58 min
Overall bit rate            : 1 710 kb/s
Encoded date                : UTC 2018-06-15 01:34:47
Writing application         : mkvmerge v7.1.0 ('Good Love') 32bit built on Jul 27 2014 12:59:18
Writing library             : libebml v1.3.0 + libmatroska v1.4.1

Video
ID                          : 1
Format                      : AVC
Format/Info                 : Advanced Video Codec
Format profile              : High@L3.1
Format settings, CABAC      : Yes
Format settings, RefFrames  : 4 frames
Codec ID                    : V_MPEG4/ISO/AVC
Duration                    : 1 h 58 min
Bit rate                    : 1 612 kb/s
Width                       : 1 280 pixels
Height                      : 544 pixels
Display aspect ratio        : 2.35:1
Frame rate mode             : Constant
Frame rate                  : 24.000 FPS
Color space                 : YUV
Chroma subsampling          : 4:2:0
Bit depth                   : 8 bits
Scan type                   : Progressive
Bits/(Pixel*Frame)          : 0.096
Stream size                 : 1.34 GiB (94%)
Writing library             : x264 core 155 r2901 7d0ff22
Encoding settings           : cabac=1 / ref=3 / deblock=1:0:0 / analyse=0x3:0x113 / me=hex / subme=7 / psy=1 / psy_rd=1.00:0.00 / mixed_ref=1 / me_range=16 / chroma_me=1 / trellis=1 / 8x8dct=1 / cqm=0 / deadzone=21,11 / fast_pskip=1 / chroma_qp_offset=-2 / threads=17 / lookahead_threads=2 / sliced_threads=0 / nr=0 / decimate=1 / interlaced=0 / bluray_compat=0 / constrained_intra=0 / bframes=3 / b_pyramid=2 / b_adapt=1 / b_bias=0 / direct=1 / weightb=1 / open_gop=0 / weightp=2 / keyint=240 / keyint_min=24 / scenecut=40 / intra_refresh=0 / rc_lookahead=40 / rc=2pass / mbtree=1 / bitrate=1612 / ratetol=1.0 / qcomp=0.60 / qpmin=0 / qpmax=69 / qpstep=4 / cplxblur=20.0 / qblur=0.5 / ip_ratio=1.40 / aq=1:1.00
Language                    : Telugu
Default                     : Yes
Forced                      : No

Audio
ID                          : 2
Format                      : MPEG Audio
Format version              : Version 1
Format profile              : Layer 3
Mode                        : Joint stereo
Mode extension              : MS Stereo
Codec ID                    : A_MPEG/L3
Codec ID/Hint               : MP3
Duration                    : 1 h 58 min
Bit rate mode               : Constant
Bit rate                    : 96.0 kb/s
Channel(s)                  : 2 channels
Sampling rate               : 32.0 kHz
Frame rate                  : 27.778 FPS (1152 SPF)
Compression mode            : Lossy
Stream size                 : 81.5 MiB (6%)
Writing library             : LAME3.100-
Language                    : Telugu
Default                     : Yes
Forced                      : No



Naa Nuvve (2018) Telugu - 720p - PreDVDRip - x264 - MP3-TMVNaa Nuvve (2018) Telugu - 720p - PreDVDRip - x264 - MP3-TMVNaa Nuvve (2018) Telugu - 720p - PreDVDRip - x264 - MP3-TMVNaa Nuvve (2018) Telugu - 720p - PreDVDRip - x264 - MP3-TMVNaa Nuvve (2018) Telugu - 720p - PreDVDRip - x264 - MP3-TMVNaa Nuvve (2018) Telugu - 720p - PreDVDRip - x264 - MP3-TMV

SINGLE DIRECT FAST LINKS

http://www.heroupload.us/667cf44b08c4d076/Naa.Nuvve.2018.Telugu.PreDVD.720p.x264-TMV.mkv



http://filefloater.com/Tqc/Naa.Nuvve.2018.Telugu.PreDVD.720p.x264-TMV.mkv




867

Dear visitor, you went to the site as unregistered user.
We recommend you to register or enter the site under your name.
Information
Customers are in the group Guests, can not leave comments in the news.
Author: WWWormlGlymn10 July 2018 15:55
Legal Steroids
9 Best Legal Anabolic Steroids For Sale

<a href="https://buysteroidslegal.info/#">Anabolic Steroids For Sale</a>

8 Best Legal Anabolic Steroids For Sale
Buy Best Legal Steroids
  • Like
  • 0

Adding a comment
Name:*
E-Mail:
  • winkwinkedsmileam
    belayfeelfellowlaughing
    lollovenorecourse
    requestsadtonguewassat
    cryingwhatbullyangry
Code:
reload, if the code cannot be seen
Enter the code: