Vunnadhi Okate Zindagi (2017) Telugu - 1080p - WEB-HD - AVC - AAC-TMV
Vunnadhi Okate Zindagi (2017) Telugu - 1080p - WEB-HD - AVC - AAC-TMV





Format                      : MPEG-4
Format profile              : Base Media
Codec ID                    : isom (isom)
File size                   : 3.20 GiB
Duration                    : 2 h 29 min
Overall bit rate mode       : Variable
Overall bit rate            : 3 063 kb/s
Encoded date                : UTC 2018-06-12 08:40:38
Tagged date                 : UTC 2018-06-12 08:40:38
Writing application         : MkvToMp4 [www.mkvtomp4.ru] version 0.224 (x64)

Video
ID                          : 1
Format                      : AVC
Format/Info                 : Advanced Video Codec
Format profile              : High@L4
Format settings, CABAC      : Yes
Format settings, RefFrames  : 4 frames
Codec ID                    : avc1
Codec ID/Info               : Advanced Video Coding
Duration                    : 2 h 29 min
Bit rate                    : 3 000 kb/s
Maximum bit rate            : 30.5 Mb/s
Width                       : 1 920 pixels
Height                      : 1 080 pixels
Display aspect ratio        : 16:9
Frame rate mode             : Constant
Frame rate                  : 25.000 FPS
Color space                 : YUV
Chroma subsampling          : 4:2:0
Bit depth                   : 8 bits
Scan type                   : Progressive
Bits/(Pixel*Frame)          : 0.058
Stream size                 : 3.12 GiB (98%)
Writing library             : x264 core 152 r2854 e9a5903
Encoding settings           : cabac=1 / ref=3 / deblock=1:0:0 / analyse=0x3:0x113 / me=hex / subme=7 / psy=1 / psy_rd=1.00:0.00 / mixed_ref=1 / me_range=16 / chroma_me=1 / trellis=1 / 8x8dct=1 / cqm=0 / deadzone=21,11 / fast_pskip=1 / chroma_qp_offset=-2 / threads=34 / lookahead_threads=5 / sliced_threads=0 / nr=0 / decimate=1 / interlaced=0 / bluray_compat=0 / constrained_intra=0 / bframes=3 / b_pyramid=2 / b_adapt=1 / b_bias=0 / direct=1 / weightb=1 / open_gop=0 / weightp=2 / keyint=50 / keyint_min=26 / scenecut=0 / intra_refresh=0 / rc_lookahead=40 / rc=abr / mbtree=1 / bitrate=3000 / ratetol=1.0 / qcomp=0.60 / qpmin=0 / qpmax=69 / qpstep=4 / ip_ratio=1.40 / aq=1:1.00
Language                    : English
Tagged date                 : UTC 2018-06-12 08:41:03

Audio
ID                          : 2
Format                      : AAC
Format/Info                 : Advanced Audio Codec
Format profile              : LC
Codec ID                    : 40
Duration                    : 2 h 29 min
Bit rate mode               : Variable
Bit rate                    : 64.6 kb/s
Maximum bit rate            : 71.3 kb/s
Channel(s)                  : 2 channels
Channel positions           : Front: L R
Sampling rate               : 48.0 kHz
Frame rate                  : 46.875 FPS (1024 SPF)
Compression mode            : Lossy
Stream size                 : 69.0 MiB (2%)
Language                    : English
Default                     : Yes
Alternate group             : 1
Encoded date                : UTC 2018-06-12 08:40:54
Tagged date                 : UTC 2018-06-12 08:41:03




Vunnadhi Okate Zindagi (2017) Telugu - 1080p - WEB-HD - AVC - AAC-TMVVunnadhi Okate Zindagi (2017) Telugu - 1080p - WEB-HD - AVC - AAC-TMVVunnadhi Okate Zindagi (2017) Telugu - 1080p - WEB-HD - AVC - AAC-TMVVunnadhi Okate Zindagi (2017) Telugu - 1080p - WEB-HD - AVC - AAC-TMVVunnadhi Okate Zindagi (2017) Telugu - 1080p - WEB-HD - AVC - AAC-TMV


SINGLE DIRECT FAST LINKS
http://www.heroupload.us/da3d422363f450af/Vunnadhi.Okate.Zindagi.2017.Telugu.Proper.WEB-HD.1080p.AVC.AAC-TMV.mp4


http://filefloater.com/To0/Vunnadhi.Okate.Zindagi.2017.Telugu.Proper.WEB-HD.1080p.AVC.AAC-TMV.mp4

1GB LINKS

http://www.heroupload.us/10d4a99603b11470/Vunnadhi.Okate.Zindagi.2017.Telugu.Proper.WEB-HD.1080p.AVC.AAC-TMV.part1.rar
http://www.heroupload.us/11333d9893d619ff/Vunnadhi.Okate.Zindagi.2017.Telugu.Proper.WEB-HD.1080p.AVC.AAC-TMV.part2.rar
http://www.heroupload.us/5fce72a417eb71d7/Vunnadhi.Okate.Zindagi.2017.Telugu.Proper.WEB-HD.1080p.AVC.AAC-TMV.part3.rar
http://www.heroupload.us/2372c6faad5cd9c1/Vunnadhi.Okate.Zindagi.2017.Telugu.Proper.WEB-HD.1080p.AVC.AAC-TMV.part4.rar



http://filefloater.com/To1/Vunnadhi.Okate.Zindagi.2017.Telugu.Proper.WEB-HD.1080p.AVC.AAC-TMV.part1.rar
http://filefloater.com/To2/Vunnadhi.Okate.Zindagi.2017.Telugu.Proper.WEB-HD.1080p.AVC.AAC-TMV.part2.rar
http://filefloater.com/To3/Vunnadhi.Okate.Zindagi.2017.Telugu.Proper.WEB-HD.1080p.AVC.AAC-TMV.part3.rar
http://filefloater.com/To4/Vunnadhi.Okate.Zindagi.2017.Telugu.Proper.WEB-HD.1080p.AVC.AAC-TMV.part4.rar




90

Dear visitor, you went to the site as unregistered user.
We recommend you to register or enter the site under your name.
Information
Customers are in the group Guests, can not leave comments in the news.
Adding a comment
Name:*
E-Mail:
  • winkwinkedsmileam
    belayfeelfellowlaughing
    lollovenorecourse
    requestsadtonguewassat
    cryingwhatbullyangry
Code:
reload, if the code cannot be seen
Enter the code: