Vasuki (2017) Telugu - 1080p - WEB-HD - AVC - AAC-TMV
Vasuki (2017) Telugu - 1080p - WEB-HD - AVC - AAC-TMV






General
Format                      : MPEG-4
Format profile              : Base Media
Codec ID                    : isom (isom/iso2/avc1/mp41)
File size                   : 2.36 GiB
Duration                    : 2 h 12 min
Overall bit rate            : 2 549 kb/s
Writing application         : Lavf57.41.100

Video
ID                          : 1
Format                      : AVC
Format/Info                 : Advanced Video Codec
Format profile              : High@L4.1
Format settings, CABAC      : Yes
Format settings, RefFrames  : 4 frames
Codec ID                    : avc1
Codec ID/Info               : Advanced Video Coding
Duration                    : 2 h 12 min
Bit rate                    : 2 415 kb/s
Nominal bit rate            : 3 500 kb/s
Width                       : 1 920 pixels
Height                      : 1 080 pixels
Display aspect ratio        : 16:9
Frame rate mode             : Constant
Frame rate                  : 25.000 FPS
Color space                 : YUV
Chroma subsampling          : 4:2:0
Bit depth                   : 8 bits
Scan type                   : Progressive
Bits/(Pixel*Frame)          : 0.047
Stream size                 : 2.23 GiB (95%)
Writing library             : x264 core 148 r2694 3b70645
Encoding settings           : cabac=1 / ref=3 / deblock=1:0:0 / analyse=0x3:0x113 / me=hex / subme=7 / psy=1 / psy_rd=1.00:0.00 / mixed_ref=1 / me_range=16 / chroma_me=1 / trellis=1 / 8x8dct=1 / cqm=0 / deadzone=21,11 / fast_pskip=1 / chroma_qp_offset=-2 / threads=34 / lookahead_threads=5 / sliced_threads=0 / nr=0 / decimate=1 / interlaced=0 / bluray_compat=0 / constrained_intra=0 / bframes=3 / b_pyramid=2 / b_adapt=1 / b_bias=0 / direct=1 / weightb=1 / open_gop=0 / weightp=2 / keyint=50 / keyint_min=26 / scenecut=0 / intra_refresh=0 / rc_lookahead=40 / rc=cbr / mbtree=1 / bitrate=3500 / ratetol=1.0 / qcomp=0.60 / qpmin=0 / qpmax=69 / qpstep=4 / vbv_maxrate=3500 / vbv_bufsize=3500 / nal_hrd=none / filler=0 / ip_ratio=1.40 / aq=1:1.00
Tagged date                 : UTC 2017-10-03 21:45:38

Audio
ID                          : 2
Format                      : AAC
Format/Info                 : Advanced Audio Codec
Format profile              : LC
Codec ID                    : 40
Duration                    : 2 h 12 min
Source duration             : 2 h 12 min
Bit rate mode               : Constant
Bit rate                    : 132 kb/s
Channel(s)                  : 2 channels
Channel positions           : Front: L R
Sampling rate               : 48.0 kHz
Frame rate                  : 46.875 FPS (1024 SPF)
Compression mode            : Lossy
Stream size                 : 123 MiB (5%)
Source stream size          : 123 MiB (5%)
Language                    : English
Default                     : Yes
Alternate group             : 1
Tagged date                 : UTC 2017-10-03 21:45:38



Vasuki (2017) Telugu - 1080p - WEB-HD - AVC - AAC-TMVVasuki (2017) Telugu - 1080p - WEB-HD - AVC - AAC-TMVVasuki (2017) Telugu - 1080p - WEB-HD - AVC - AAC-TMV

SINGLE DIRECT FAST LINKS

http://www.heroupload.com/c33bfdc4bcf3dc84/Vasuki.2017.Telugu.Original.WEB-HD.1080p.AVC.AAC-TMV.mp4


http://filefloater.com/61d/Vasuki.2017.Telugu.Original.WEB-HD.1080p.AVC.AAC-TMV.mp4

700MB LINKS


http://www.heroupload.com/31343e8b4ccf735e/Vasuki.2017.Telugu.Original.WEB-HD.1080p.AVC.AAC-TMV.part1.rar
http://www.heroupload.com/c3af60cfa32dab8f/Vasuki.2017.Telugu.Original.WEB-HD.1080p.AVC.AAC-TMV.part2.rar
http://www.heroupload.com/5bde83427363bd0e/Vasuki.2017.Telugu.Original.WEB-HD.1080p.AVC.AAC-TMV.part3.rar
http://www.heroupload.com/d5c3086211e727f2/Vasuki.2017.Telugu.Original.WEB-HD.1080p.AVC.AAC-TMV.part4.rar



http://filefloater.com/61e/Vasuki.2017.Telugu.Original.WEB-HD.1080p.AVC.AAC-TMV.part1.rar
http://filefloater.com/61f/Vasuki.2017.Telugu.Original.WEB-HD.1080p.AVC.AAC-TMV.part2.rar
http://filefloater.com/61g/Vasuki.2017.Telugu.Original.WEB-HD.1080p.AVC.AAC-TMV.part3.rar
http://filefloater.com/61h/Vasuki.2017.Telugu.Original.WEB-HD.1080p.AVC.AAC-TMV.part4.rar


2091

Dear visitor, you went to the site as unregistered user.
We recommend you to register or enter the site under your name.
Information
Customers are in the group Guests, can not leave comments in the news.
Author: uhydyhen25 February 2018 03:35
Adding a comment
Name:*
E-Mail:
  • winkwinkedsmileam
    belayfeelfellowlaughing
    lollovenorecourse
    requestsadtonguewassat
    cryingwhatbullyangry
Code:
reload, if the code cannot be seen
Enter the code: