Udta Punjab (2016) 720p - BluRay - x264 - DD5.1-NhaNc3
Udta Punjab (2016) 720p - BluRay - x264 - DD5.1-NhaNc3



Format version              : Version 2
File size                   : 2.93 GiB
Duration                    : 2 h 28 min
Overall bit rate            : 2 822 kb/s
Encoded date                : UTC 2017-11-09 06:30:21
Writing application         : mkvmerge v4.9.1 ('Ich will') built on Jul 11 2011 23:53:15
Writing library             : libebml v1.2.1 + libmatroska v1.1.1

Video
ID                          : 1
Format                      : AVC
Format/Info                 : Advanced Video Codec
Format profile              : High@L4.1
Format settings, CABAC      : Yes
Format settings, RefFrames  : 8 frames
Codec ID                    : V_MPEG4/ISO/AVC
Duration                    : 2 h 28 min
Bit rate                    : 2 437 kb/s
Width                       : 1 280 pixels
Height                      : 532 pixels
Display aspect ratio        : 2.40:1
Frame rate mode             : Constant
Frame rate                  : 24.000 FPS
Color space                 : YUV
Chroma subsampling          : 4:2:0
Bit depth                   : 8 bits
Scan type                   : Progressive
Bits/(Pixel*Frame)          : 0.149
Stream size                 : 2.47 GiB (84%)
Writing library             : x264 core 148 r2638 7599210
Encoding settings           : cabac=1 / ref=8 / deblock=1:0:0 / analyse=0x3:0x113 / me=umh / subme=9 / psy=1 / psy_rd=1.00:0.00 / mixed_ref=1 / me_range=16 / chroma_me=1 / trellis=1 / 8x8dct=1 / cqm=0 / deadzone=21,11 / fast_pskip=1 / chroma_qp_offset=-2 / threads=8 / lookahead_threads=1 / sliced_threads=0 / nr=0 / decimate=1 / interlaced=0 / bluray_compat=0 / constrained_intra=0 / bframes=5 / b_pyramid=2 / b_adapt=1 / b_bias=0 / direct=1 / weightb=1 / open_gop=0 / weightp=2 / keyint=250 / keyint_min=24 / scenecut=40 / intra_refresh=0 / rc_lookahead=40 / rc=2pass / mbtree=1 / bitrate=2437 / ratetol=1.0 / qcomp=0.60 / qpmin=0 / qpmax=69 / qpstep=4 / cplxblur=20.0 / qblur=0.5 / vbv_maxrate=20000 / vbv_bufsize=15000 / nal_hrd=none / filler=0 / ip_ratio=1.40 / aq=1:1.00
Language                    : English
Default                     : Yes
Forced                      : No
Color range                 : Limited
Color primaries             : BT.709
Transfer characteristics    : BT.709
Matrix coefficients         : BT.709

Audio
ID                          : 2
Format                      : AC-3
Format/Info                 : Audio Coding 3
Format settings, Endianness : Big
Codec ID                    : A_AC3
Duration                    : 2 h 28 min
Bit rate mode               : Constant
Bit rate                    : 384 kb/s
Channel(s)                  : 6 channels
Channel positions           : Front: L C R, Side: L R, LFE
Sampling rate               : 48.0 kHz
Frame rate                  : 31.250 FPS (1536 SPF)
Bit depth                   : 16 bits
Compression mode            : Lossy
Stream size                 : 408 MiB (14%)
Language                    : English
Service kind                : Complete Main
Default                     : Yes
Forced                      : Yes

Menu
00:00:00.000                : en:00:00:00.000
00:04:48.000                : en:00:04:48.000
00:09:57.000                : en:00:09:57.000
00:18:12.625                : en:00:18:12.625
00:20:35.167                : en:00:20:35.167
00:26:01.875                : en:00:26:01.875
00:29:45.625                : en:00:29:45.625
00:37:19.292                : en:00:37:19.292
00:41:22.250                : en:00:41:22.250
00:47:47.000                : en:00:47:47.000
01:02:42.833                : en:01:02:42.833
01:12:10.000                : en:01:12:10.000
01:26:40.833                : en:01:26:40.833
01:34:04.667                : en:01:34:04.667
01:43:50.000                : en:01:43:50.000
01:58:05.208                : en:01:58:05.208
02:02:52.375                : en:02:02:52.375
02:04:51.458                : en:02:04:51.458
02:10:29.625                : en:02:10:29.625
02:21:17.625                : en:02:21:17.625
02:23:21.000                : en:02:23:21.000



Udta Punjab (2016) 720p - BluRay - x264 - DD5.1-NhaNc3

SINGLE DIRECT FAST LINKS

http://www.heroupload.us/83cf9f4a2ee93ca8/Udta.Punjab.(2016).720p.BluRay.nHD.x264-NhaNc3.mkv



http://filefloater.com/29Pf/Udta.Punjab.(2016).720p.BluRay.nHD.x264-NhaNc3.mkv



Buy Premium From My Links & Support Me
131

Dear visitor, you went to the site as unregistered user.
We recommend you to register or enter the site under your name.
Information
Customers are in the group Guests, can not leave comments in the news.
Author: paco3can26 July 2018 21:49 User offline
Adding a comment
Name:*
E-Mail:
  • winkwinkedsmileam
    belayfeelfellowlaughing
    lollovenorecourse
    requestsadtonguewassat
    cryingwhatbullyangry
Code:
reload, if the code cannot be seen
Enter the code: