Golmaal 3 (2010) 720p - BluRay - x264 - DD5.1-NhaNc3
Golmaal 3 (2010) 720p - BluRay - x264 - DD5.1-NhaNc3



General
Unique ID                   : 202535741114783011995450465785037510478 (0x985EF70134E7A4E384E44582D62CD74E)
Complete name               : E:\Download C 3\Golmaal.3.2010.720p.BluRay.nHD.x264-NhaNc3.mkv
Format                      : Matroska
Format version              : Version 2
File size                   : 2.83 GiB
Duration                    : 2 h 20 min
Overall bit rate            : 2 895 kb/s
Encoded date                : UTC 2011-06-17 11:05:15
Writing application         : mkvmerge v4.8.0 ('I Got The...') built on May 24 2011 03:12:58
Writing library             : libebml v1.2.0 + libmatroska v1.1.0

Video
ID                          : 1
Format                      : AVC
Format/Info                 : Advanced Video Codec
Format profile              : High@L4.1
Format settings, CABAC      : Yes
Format settings, RefFrames  : 5 frames
Muxing mode                 : Header stripping
Codec ID                    : V_MPEG4/ISO/AVC
Duration                    : 2 h 20 min
Bit rate                    : 2 510 kb/s
Width                       : 1 280 pixels
Height                      : 576 pixels
Display aspect ratio        : 2.222
Frame rate mode             : Constant
Frame rate                  : 24.000 FPS
Color space                 : YUV
Chroma subsampling          : 4:2:0
Bit depth                   : 8 bits
Scan type                   : Progressive
Bits/(Pixel*Frame)          : 0.142
Stream size                 : 2.40 GiB (85%)
Writing library             : x264 core 114 r1924 08d04a4
Encoding settings           : cabac=1 / ref=5 / deblock=1:0:0 / analyse=0x3:0x113 / me=umh / subme=9 / psy=1 / psy_rd=1.00:0.00 / mixed_ref=1 / me_range=16 / chroma_me=1 / trellis=1 / 8x8dct=1 / cqm=0 / deadzone=21,11 / fast_pskip=1 / chroma_qp_offset=-2 / threads=12 / sliced_threads=0 / nr=0 / decimate=1 / interlaced=0 / constrained_intra=0 / bframes=5 / b_pyramid=2 / b_adapt=1 / b_bias=0 / direct=1 / weightb=1 / open_gop=0 / weightp=2 / keyint=250 / keyint_min=24 / scenecut=40 / intra_refresh=0 / rc_lookahead=40 / rc=2pass / mbtree=1 / bitrate=2510 / ratetol=1.0 / qcomp=0.60 / qpmin=0 / qpmax=69 / qpstep=4 / cplxblur=20.0 / qblur=0.5 / vbv_maxrate=20000 / vbv_bufsize=15000 / nal_hrd=none / ip_ratio=1.40 / aq=1:1.00
Language                    : English
Default                     : Yes
Forced                      : No
Color range                 : Limited
Color primaries             : BT.709
Transfer characteristics    : BT.709
Matrix coefficients         : BT.709

Audio
ID                          : 2
Format                      : AC-3
Format/Info                 : Audio Coding 3
Format settings, Endianness : Big
Muxing mode                 : Header stripping
Codec ID                    : A_AC3
Duration                    : 2 h 20 min
Bit rate mode               : Constant
Bit rate                    : 384 kb/s
Channel(s)                  : 6 channels
Channel positions           : Front: L C R, Side: L R, LFE
Sampling rate               : 48.0 kHz
Frame rate                  : 31.250 FPS (1536 SPF)
Bit depth                   : 16 bits
Compression mode            : Lossy
Stream size                 : 385 MiB (13%)
Service kind                : Complete Main
Default                     : Yes
Forced                      : No

Text
ID                          : 3
Format                      : UTF-8
Codec ID                    : S_TEXT/UTF8
Codec ID/Info               : UTF-8 Plain Text
Title                       : English
Language                    : English
Default                     : Yes
Forced                      : Yes


Golmaal 3 (2010) 720p - BluRay - x264 - DD5.1-NhaNc3

SINGLE DIRECT FAST LINKS

http://www.heroupload.us/f302ad9ddcc61fe4/Golmaal.3.2010.720p.BluRay.nHD.x264-NhaNc3.mkv



http://filefloater.com/29Kv/Golmaal.3.2010.720p.BluRay.nHD.x264-NhaNc3.mkv




Buy Premium From My Links & Support Me
284

Dear visitor, you went to the site as unregistered user.
We recommend you to register or enter the site under your name.
Information
Customers are in the group Guests, can not leave comments in the news.
Author: paco3can21 July 2018 13:25 User offline
thnx,


a-prayer-before-dawn-2017
duck-duck-goose-2018
father-of-the-year-2018

thnx,


[url=https://www.reddit.com/r/filebabt2/]Free File Download/url]
  • Like
  • 0

Author: paco3can22 July 2018 23:01 User offline
  • Like
  • 0

Author: paco3can25 July 2018 20:38 User offline
Adding a comment
Name:*
E-Mail:
  • winkwinkedsmileam
    belayfeelfellowlaughing
    lollovenorecourse
    requestsadtonguewassat
    cryingwhatbullyangry
Code:
reload, if the code cannot be seen
Enter the code: