Gangster (2006) 720p - BluRay - x264 - DD5.1-NhaNc3
Gangster (2006) 720p - BluRay - x264 - DD5.1-NhaNc3



General
Unique ID                   : 199261854844789331039606038684642852399 (0x95E86FF305A552FA90291C6FF4643E2F)
Complete name               : E:\Download C 3\Gangster.2006.720p.BluRay.nHD.x264-NhaNc3.mkv
Format                      : Matroska
Format version              : Version 2
File size                   : 2.18 GiB
Duration                    : 2 h 0 min
Overall bit rate            : 2 597 kb/s
Encoded date                : UTC 2010-10-16 10:53:52
Writing application         : mkvmerge v4.0.0 ('The Stars were mine') built on Jun  6 2010 16:18:42
Writing library             : libebml v1.0.0 + libmatroska v1.0.0

Video
ID                          : 1
Format                      : AVC
Format/Info                 : Advanced Video Codec
Format profile              : High@L4.1
Format settings, CABAC      : Yes
Format settings, RefFrames  : 8 frames
Codec ID                    : V_MPEG4/ISO/AVC
Duration                    : 2 h 0 min
Bit rate                    : 2 279 kb/s
Width                       : 1 280 pixels
Height                      : 544 pixels
Display aspect ratio        : 2.35:1
Frame rate mode             : Constant
Frame rate                  : 23.976 FPS
Color space                 : YUV
Chroma subsampling          : 4:2:0
Bit depth                   : 8 bits
Scan type                   : Progressive
Bits/(Pixel*Frame)          : 0.137
Stream size                 : 1.87 GiB (86%)
Writing library             : x264 core 98 r1649 20cbe10
Encoding settings           : cabac=1 / ref=8 / deblock=1:0:0 / analyse=0x3:0x113 / me=umh / subme=10 / psy=1 / psy_rd=1.00:0.00 / mixed_ref=1 / me_range=16 / chroma_me=1 / trellis=2 / 8x8dct=1 / cqm=2 / deadzone=21,11 / fast_pskip=1 / chroma_qp_offset=-2 / threads=12 / sliced_threads=0 / nr=0 / decimate=1 / interlaced=0 / constrained_intra=0 / bframes=3 / b_pyramid=0 / b_adapt=2 / b_bias=0 / direct=3 / weightb=1 / weightp=2 / keyint=250 / keyint_min=25 / scenecut=40 / intra_refresh=0 / rc_lookahead=40 / rc=2pass / mbtree=1 / bitrate=2279 / ratetol=1.0 / qcomp=0.60 / qpmin=10 / qpmax=51 / qpstep=4 / cplxblur=20.0 / qblur=0.5 / vbv_maxrate=50000 / vbv_bufsize=50000 / ip_ratio=1.40 / aq=1:1.00 / nal_hrd=none
Language                    : English
Default                     : No
Forced                      : No

Audio
ID                          : 2
Format                      : AC-3
Format/Info                 : Audio Coding 3
Format settings, Endianness : Big
Codec ID                    : A_AC3
Duration                    : 2 h 0 min
Bit rate mode               : Constant
Bit rate                    : 320 kb/s
Channel(s)                  : 6 channels
Channel positions           : Front: L C R, Side: L R, LFE
Sampling rate               : 48.0 kHz
Frame rate                  : 31.250 FPS (1536 SPF)
Bit depth                   : 16 bits
Compression mode            : Lossy
Stream size                 : 276 MiB (12%)
Language                    : Hindi
Service kind                : Complete Main
Default                     : Yes
Forced                      : No

Text
ID                          : 3
Format                      : UTF-8
Codec ID                    : S_TEXT/UTF8
Codec ID/Info               : UTF-8 Plain Text
Language                    : English
Default                     : Yes
Forced                      : No


Gangster (2006) 720p - BluRay - x264 - DD5.1-NhaNc3

SINGLE DIRECT FAST LINKS

http://www.heroupload.us/5932f24ec336a274/Gangster.2006.720p.BluRay.nHD.x264-NhaNc3.mkv



http://filefloater.com/29Kp/Gangster.2006.720p.BluRay.nHD.x264-NhaNc3.mkv



Buy Premium From My Links & Support Me
264

Dear visitor, you went to the site as unregistered user.
We recommend you to register or enter the site under your name.
Information
Customers are in the group Guests, can not leave comments in the news.
Author: paco3can21 July 2018 13:31 User offline
thnx,


a-prayer-before-dawn-2017
duck-duck-goose-2018
father-of-the-year-2018

thnx,


[url=https://www.reddit.com/r/filebabt2/]Free File Download/url]
  • Like
  • 0

Author: paco3can22 July 2018 23:03 User offline
  • Like
  • 0

Author: paco3can25 July 2018 20:34 User offline
Adding a comment
Name:*
E-Mail:
  • winkwinkedsmileam
    belayfeelfellowlaughing
    lollovenorecourse
    requestsadtonguewassat
    cryingwhatbullyangry
Code:
reload, if the code cannot be seen
Enter the code: