Fashion (2008) 720p - BluRay - x264 - DD5.1-NhaNc3
Fashion (2008) 720p - BluRay - x264 - DD5.1-NhaNc3



General
Unique ID                   : 236955651465253973538461814949961760971 (0xB243FF9B64D282F493A9DA153FB780CB)
Complete name               : E:\Download C 3\Fashion.2009.720p.BluRay.nHD.x264-NhaNc3.mkv
Format                      : Matroska
Format version              : Version 2
File size                   : 2.19 GiB
Duration                    : 2 h 45 min
Overall bit rate            : 1 894 kb/s
Encoded date                : UTC 2010-10-20 09:50:41
Writing application         : mkvmerge v4.0.0 ('The Stars were mine') built on Jun  6 2010 16:18:42
Writing library             : libebml v1.0.0 + libmatroska v1.0.0

Video
ID                          : 1
Format                      : AVC
Format/Info                 : Advanced Video Codec
Format profile              : High@L4.1
Format settings, CABAC      : Yes
Format settings, RefFrames  : 8 frames
Codec ID                    : V_MPEG4/ISO/AVC
Duration                    : 2 h 45 min
Bit rate                    : 1 667 kb/s
Width                       : 1 280 pixels
Height                      : 544 pixels
Display aspect ratio        : 2.35:1
Frame rate mode             : Constant
Frame rate                  : 24.000 FPS
Color space                 : YUV
Chroma subsampling          : 4:2:0
Bit depth                   : 8 bits
Scan type                   : Progressive
Bits/(Pixel*Frame)          : 0.100
Stream size                 : 1.88 GiB (86%)
Writing library             : x264 core 98 r1649 20cbe10
Encoding settings           : cabac=1 / ref=8 / deblock=1:0:0 / analyse=0x3:0x113 / me=umh / subme=10 / psy=1 / psy_rd=1.00:0.00 / mixed_ref=1 / me_range=16 / chroma_me=1 / trellis=2 / 8x8dct=1 / cqm=2 / deadzone=21,11 / fast_pskip=1 / chroma_qp_offset=-2 / threads=9 / sliced_threads=0 / nr=0 / decimate=1 / interlaced=0 / constrained_intra=0 / bframes=3 / b_pyramid=0 / b_adapt=2 / b_bias=0 / direct=3 / weightb=1 / weightp=2 / keyint=250 / keyint_min=25 / scenecut=40 / intra_refresh=0 / rc_lookahead=40 / rc=2pass / mbtree=1 / bitrate=1667 / ratetol=1.0 / qcomp=0.60 / qpmin=10 / qpmax=51 / qpstep=4 / cplxblur=20.0 / qblur=0.5 / vbv_maxrate=50000 / vbv_bufsize=50000 / ip_ratio=1.40 / aq=1:1.00 / nal_hrd=none
Language                    : English
Default                     : No
Forced                      : No

Audio
ID                          : 2
Format                      : AC-3
Format/Info                 : Audio Coding 3
Format settings, Endianness : Big
Codec ID                    : A_AC3
Duration                    : 2 h 45 min
Bit rate mode               : Constant
Bit rate                    : 224 kb/s
Channel(s)                  : 6 channels
Channel positions           : Front: L C R, Side: L R, LFE
Sampling rate               : 48.0 kHz
Frame rate                  : 31.250 FPS (1536 SPF)
Bit depth                   : 16 bits
Compression mode            : Lossy
Stream size                 : 265 MiB (12%)
Language                    : Hindi
Service kind                : Complete Main
Default                     : Yes
Forced                      : No


Fashion (2008) 720p - BluRay - x264 - DD5.1-NhaNc3
SINGLE DIRECT FAST LINKS

http://www.heroupload.us/244df671301c65e7/Fashion.2009.720p.BluRay.nHD.x264-NhaNc3.mkv



http://filefloater.com/29Kk/Fashion.2009.720p.BluRay.nHD.x264-NhaNc3.mkv


Buy Premium From My Links & Support Me
364

Dear visitor, you went to the site as unregistered user.
We recommend you to register or enter the site under your name.
Information
Customers are in the group Guests, can not leave comments in the news.
Author: paco3can21 July 2018 21:52 User offline
thnx,


a-prayer-before-dawn-2017
duck-duck-goose-2018
father-of-the-year-2018

thnx,


[url=https://www.reddit.com/r/filebabt2/]Free File Download/url]

thnx,


[url=https://groups.google.com/forum/#!forum/the-equalizer-2-2018-hd-rip-full-d
ownload-online]The Equalizer 2 2018 HD rip Full download Online/url]
  • Like
  • 0

Author: paco3can22 July 2018 22:58 User offline
thnx,


[url=https://www.reddit.com/r/filebabt2]Free Downloads/url]

[url=https://www.reddit.com/user/govikujmg]Free File Downloads/url]

thnx,


Freepacofile

thnx,


Freepacofile

thnx,


Movieplanet4you

thnx,


Raazi(2018).avi
Duck Duck Goose.(2018).avi
Tully(2018).avi

thnx,


filebabt2
  • Like
  • 0

Author: paco3can25 July 2018 20:31 User offline
Adding a comment
Name:*
E-Mail:
  • winkwinkedsmileam
    belayfeelfellowlaughing
    lollovenorecourse
    requestsadtonguewassat
    cryingwhatbullyangry
Code:
reload, if the code cannot be seen
Enter the code: