English Vinglish (2012) 720p - BluRay - x264 - DD5.1-NhaNc3
English Vinglish (2012) 720p - BluRay - x264 - DD5.1-NhaNc3



General
Unique ID                   : 229370983229183350927359324830057192185 (0xAC8F3E9762BE1F3C9ADD5DB257655AF9)
Complete name               : E:\Download C 3\English.Vinglish.2012.720p.BluRay.nHD.x264-NhaNc3.mkv
Format                      : Matroska
Format version              : Version 2
File size                   : 2.64 GiB
Duration                    : 2 h 13 min
Overall bit rate            : 2 824 kb/s
Encoded date                : UTC 2012-12-16 10:37:58
Writing application         : mkvmerge v4.8.0 ('I Got The...') built on May 24 2011 03:12:58
Writing library             : libebml v1.2.0 + libmatroska v1.1.0

Video
ID                          : 1
Format                      : AVC
Format/Info                 : Advanced Video Codec
Format profile              : High@L4.1
Format settings, CABAC      : Yes
Format settings, RefFrames  : 8 frames
Codec ID                    : V_MPEG4/ISO/AVC
Duration                    : 2 h 13 min
Bit rate                    : 2 438 kb/s
Width                       : 1 280 pixels
Height                      : 544 pixels
Display aspect ratio        : 2.35:1
Frame rate mode             : Constant
Frame rate                  : 24.000 FPS
Color space                 : YUV
Chroma subsampling          : 4:2:0
Bit depth                   : 8 bits
Scan type                   : Progressive
Bits/(Pixel*Frame)          : 0.146
Stream size                 : 2.23 GiB (84%)
Writing library             : x264 core 128 r2216 198a7ea
Encoding settings           : cabac=1 / ref=8 / deblock=1:0:0 / analyse=0x3:0x113 / me=umh / subme=9 / psy=1 / psy_rd=1.00:0.00 / mixed_ref=1 / me_range=16 / chroma_me=1 / trellis=1 / 8x8dct=1 / cqm=0 / deadzone=21,11 / fast_pskip=1 / chroma_qp_offset=-2 / threads=12 / lookahead_threads=2 / sliced_threads=0 / nr=0 / decimate=1 / interlaced=0 / bluray_compat=0 / constrained_intra=0 / bframes=5 / b_pyramid=2 / b_adapt=1 / b_bias=0 / direct=1 / weightb=1 / open_gop=0 / weightp=2 / keyint=250 / keyint_min=24 / scenecut=40 / intra_refresh=0 / rc_lookahead=40 / rc=2pass / mbtree=1 / bitrate=2438 / ratetol=1.0 / qcomp=0.60 / qpmin=0 / qpmax=69 / qpstep=4 / cplxblur=20.0 / qblur=0.5 / vbv_maxrate=20000 / vbv_bufsize=15000 / nal_hrd=none / ip_ratio=1.40 / aq=1:1.00
Language                    : English
Default                     : Yes
Forced                      : No
Color range                 : Limited
Color primaries             : BT.709
Transfer characteristics    : BT.709
Matrix coefficients         : BT.709

Audio
ID                          : 2
Format                      : AC-3
Format/Info                 : Audio Coding 3
Format settings, Endianness : Big
Codec ID                    : A_AC3
Duration                    : 2 h 13 min
Bit rate mode               : Constant
Bit rate                    : 384 kb/s
Channel(s)                  : 6 channels
Channel positions           : Front: L C R, Side: L R, LFE
Sampling rate               : 48.0 kHz
Frame rate                  : 31.250 FPS (1536 SPF)
Bit depth                   : 16 bits
Compression mode            : Lossy
Stream size                 : 367 MiB (14%)
Language                    : English
Service kind                : Complete Main
Default                     : Yes
Forced                      : Yes

Text
ID                          : 3
Format                      : UTF-8
Codec ID                    : S_TEXT/UTF8
Codec ID/Info               : UTF-8 Plain Text
Title                       : English Subs - DDR
Language                    : English
Default                     : Yes
Forced                      : No

Menu
00:00:00.000                : hi:00:00:00.000
00:03:20.083                : hi:00:03:20.083
00:05:31.125                : hi:00:05:31.125
00:12:09.750                : hi:00:12:09.750
00:18:16.750                : hi:00:18:16.750
00:22:16.625                : hi:00:22:16.625
00:25:51.250                : hi:00:25:51.250
00:27:45.125                : hi:00:27:45.125
00:33:23.958                : hi:00:33:23.958
00:35:46.542                : hi:00:35:46.542
00:37:40.542                : hi:00:37:40.542
00:40:35.083                : hi:00:40:35.083
00:45:05.000                : hi:00:45:05.000
00:51:25.000                : hi:00:51:25.000
00:54:26.583                : hi:00:54:26.583
00:59:09.375                : hi:00:59:09.375
01:02:06.000                : hi:01:02:06.000
01:03:38.083                : hi:01:03:38.083
01:10:11.333                : hi:01:10:11.333
01:11:44.792                : hi:01:11:44.792
01:14:40.917                : hi:01:14:40.917
01:17:26.000                : hi:01:17:26.000
01:18:20.458                : hi:01:18:20.458
01:20:06.542                : hi:01:20:06.542
01:27:36.375                : hi:01:27:36.375
01:30:52.833                : hi:01:30:52.833
01:33:30.042                : hi:01:33:30.042
01:35:34.583                : hi:01:35:34.583
01:39:19.875                : hi:01:39:19.875
01:42:39.750                : hi:01:42:39.750
01:48:14.542                : hi:01:48:14.542
01:52:33.708                : hi:01:52:33.708
01:57:33.917                : hi:01:57:33.917
02:02:00.458                : hi:02:02:00.458
02:10:56.458                : hi:02:10:56.458



SINGLE DIRECT FAST LINKS

http://www.heroupload.us/42820db61c86817c/English.Vinglish.2012.720p.BluRay.nHD.x264-NhaNc3.mkv



http://filefloater.com/29Ke/English.Vinglish.2012.720p.BluRay.nHD.x264-NhaNc3.mkv



Buy Premium From My Links & Support Me
384

Dear visitor, you went to the site as unregistered user.
We recommend you to register or enter the site under your name.
Information
Customers are in the group Guests, can not leave comments in the news.
Author: paco3can21 July 2018 21:51 User offline
thnx,


a-prayer-before-dawn-2017
duck-duck-goose-2018
father-of-the-year-2018

thnx,


[url=https://www.reddit.com/r/filebabt2/]Free File Download/url]

thnx,


[url=https://www.reddit.com/r/filebabt2/]Free File Download/url]

thnx,


[url=https://groups.google.com/forum/#!forum/the-equalizer-2-2018-hd-rip-full-d
ownload-online]The Equalizer 2 2018 HD rip Full download Online/url]
  • Like
  • 0

Author: paco3can22 July 2018 23:06 User offline
thnx,


[url=https://www.reddit.com/r/filebabt2]Free Downloads/url]

[url=https://www.reddit.com/user/govikujmg]Free File Downloads/url]

thnx,


Freepacofile

thnx,


Freepacofile

thnx,


Movieplanet4you

thnx,


Raazi(2018).avi
Duck Duck Goose.(2018).avi
Tully(2018).avi

thnx,


filebabt2
  • Like
  • 0

Author: paco3can25 July 2018 20:32 User offline
Adding a comment
Name:*
E-Mail:
  • winkwinkedsmileam
    belayfeelfellowlaughing
    lollovenorecourse
    requestsadtonguewassat
    cryingwhatbullyangry
Code:
reload, if the code cannot be seen
Enter the code: