Lust Stories (2018) 1080p - WEB-DL - H264 - DD5.1-TeamSunny
Lust Stories (2018) 1080p - WEB-DL - H264 - DD5.1-TeamSunny




General

Format                      : Matroska
Format version              : Version 4 / Version 2
File size                   : 2.52 GiB
Duration                    : 2 h 0 min
Overall bit rate mode       : Variable
Overall bit rate            : 2 993 kb/s
Encoded date                : UTC 2018-06-15 10:44:30
Writing application         : mkvmerge v17.0.0 ('Be Ur Friend') 64-bit
Writing library             : libebml v1.3.5 + libmatroska v1.4.8

Video
ID                          : 1
Format                      : AVC
Format/Info                 : Advanced Video Codec
Format profile              : Main@L4
Format settings, CABAC      : Yes
Format settings, RefFrames  : 3 frames
Codec ID                    : V_MPEG4/ISO/AVC
Duration                    : 2 h 0 min
Bit rate mode               : Variable
Bit rate                    : 2 610 kb/s
Maximum bit rate            : 3 915 kb/s
Width                       : 1 920 pixels
Height                      : 1 080 pixels
Display aspect ratio        : 16:9
Frame rate mode             : Constant
Frame rate                  : 24.000 FPS
Color space                 : YUV
Chroma subsampling          : 4:2:0
Bit depth                   : 8 bits
Scan type                   : Progressive
Bits/(Pixel*Frame)          : 0.052
Stream size                 : 2.19 GiB (87%)
Writing library             : x264 core 148 r2715 7e75228
Encoding settings           : cabac=1 / ref=3 / deblock=1:0:0 / analyse=0x1:0x111 / me=umh / subme=10 / psy=1 / psy_rd=1.00:0.00 / mixed_ref=1 / me_range=24 / chroma_me=1 / trellis=2 / 8x8dct=0 / cqm=0 / deadzone=21,11 / fast_pskip=1 / chroma_qp_offset=-2 / threads=8 / lookahead_threads=1 / sliced_threads=0 / nr=0 / decimate=1 / interlaced=0 / bluray_compat=0 / stitchable=1 / constrained_intra=0 / bframes=2 / b_pyramid=0 / b_adapt=2 / b_bias=0 / direct=3 / weightb=1 / open_gop=0 / weightp=2 / keyint=48 / keyint_min=25 / scenecut=0 / intra_refresh=0 / rc_lookahead=48 / rc=2pass / mbtree=1 / bitrate=2610 / ratetol=1.0 / qcomp=0.50 / qpmin=6 / qpmax=51 / qpstep=4 / cplxblur=20.0 / qblur=0.5 / vbv_maxrate=3915 / vbv_bufsize=5220 / nal_hrd=vbr / filler=0 / ip_ratio=1.40 / aq=1:1.00
Language                    : Hindi
Default                     : Yes
Forced                      : No

Audio
ID                          : 2
Format                      : AC-3
Format/Info                 : Audio Coding 3
Format settings, Endianness : Big
Codec ID                    : A_AC3
Duration                    : 2 h 0 min
Bit rate mode               : Constant
Bit rate                    : 384 kb/s
Channel(s)                  : 6 channels
Channel positions           : Front: L C R, Side: L R, LFE
Sampling rate               : 48.0 kHz
Frame rate                  : 31.250 FPS (1536 SPF)
Bit depth                   : 16 bits
Compression mode            : Lossy
Stream size                 : 331 MiB (13%)
Title                       : DD 5.1 =TeamSunny=
Language                    : Hindi
Service kind                : Complete Main
Default                     : Yes
Forced                      : No

Text #1
ID                          : 3
Format                      : UTF-8
Codec ID                    : S_TEXT/UTF8
Codec ID/Info               : UTF-8 Plain Text
Duration                    : 1 h 56 min
Bit rate                    : 40 b/s
Count of elements           : 1124
Stream size                 : 34.3 KiB (0%)
Title                       : =TeamSunny=
Language                    : English
Default                     : Yes
Forced                      : Yes

Text #2
ID                          : 4
Format                      : UTF-8
Codec ID                    : S_TEXT/UTF8
Codec ID/Info               : UTF-8 Plain Text
Duration                    : 1 h 56 min
Bit rate                    : 49 b/s
Count of elements           : 1457
Stream size                 : 42.5 KiB (0%)
Title                       : =TeamSunny=
Language                    : Spanish
Default                     : No
Forced                      : No

Text #3
ID                          : 5
Format                      : UTF-8
Codec ID                    : S_TEXT/UTF8
Codec ID/Info               : UTF-8 Plain Text
Duration                    : 1 h 56 min
Bit rate                    : 53 b/s
Count of elements           : 1443
Stream size                 : 45.3 KiB (0%)
Title                       : =TeamSunny=
Language                    : German
Default                     : No
Forced                      : No

Text #4
ID                          : 6
Format                      : UTF-8
Codec ID                    : S_TEXT/UTF8
Codec ID/Info               : UTF-8 Plain Text
Duration                    : 1 h 56 min
Bit rate                    : 46 b/s
Count of elements           : 1449
Stream size                 : 39.9 KiB (0%)
Title                       : =TeamSunny=
Language                    : Italian
Default                     : No
Forced                      : No

Text #5
ID                          : 7
Format                      : UTF-8
Codec ID                    : S_TEXT/UTF8
Codec ID/Info               : UTF-8 Plain Text
Duration                    : 1 h 56 min
Bit rate                    : 51 b/s
Count of elements           : 1450
Stream size                 : 43.9 KiB (0%)
Title                       : =TeamSunny=
Language                    : French
Default                     : No
Forced                      : No





Lust Stories (2018) 1080p - WEB-DL - H264 - DD5.1-TeamSunny
Lust Stories (2018) 1080p - WEB-DL - H264 - DD5.1-TeamSunny
Lust Stories (2018) 1080p - WEB-DL - H264 - DD5.1-TeamSunny
Lust Stories (2018) 1080p - WEB-DL - H264 - DD5.1-TeamSunny
Lust Stories (2018) 1080p - WEB-DL - H264 - DD5.1-TeamSunny
Lust Stories (2018) 1080p - WEB-DL - H264 - DD5.1-TeamSunny
Lust Stories (2018) 1080p - WEB-DL - H264 - DD5.1-TeamSunny
Lust Stories (2018) 1080p - WEB-DL - H264 - DD5.1-TeamSunny
Lust Stories (2018) 1080p - WEB-DL - H264 - DD5.1-TeamSunny
Lust Stories (2018) 1080p - WEB-DL - H264 - DD5.1-TeamSunny
Lust Stories (2018) 1080p - WEB-DL - H264 - DD5.1-TeamSunny


SINGLE DIRECT FAST LINKS
http://www.heroupload.us/f51956a54f2a295f/Lust.Stories.2018.Hindi.1080p.WEB-DL.DD5.1.H.264-TeamSunny.mkv


http://filefloater.com/Tq4/Lust.Stories.2018.Hindi.1080p.WEB-DL.DD5.1.H.264-TeamSunny.mkv

1GB LINKS

http://www.heroupload.us/43b819a771cd1365/Lust.Stories.2018.Hindi.1080p.WEB-DL.DD5.1.H.264-TeamSunny.part1.rar
http://www.heroupload.us/886f24447b42e2be/Lust.Stories.2018.Hindi.1080p.WEB-DL.DD5.1.H.264-TeamSunny.part2.rar
http://www.heroupload.us/52d8bd9de46b1741/Lust.Stories.2018.Hindi.1080p.WEB-DL.DD5.1.H.264-TeamSunny.part3.rar
http://www.heroupload.us/ac3d22a2043d7a3e/Lust.Stories.2018.Hindi.1080p.WEB-DL.DD5.1.H.264-TeamSunny.part4.rar



http://filefloater.com/Tq5/Lust.Stories.2018.Hindi.1080p.WEB-DL.DD5.1.H.264-TeamSunny.part1.rar
http://filefloater.com/Tq6/Lust.Stories.2018.Hindi.1080p.WEB-DL.DD5.1.H.264-TeamSunny.part2.rar
http://filefloater.com/Tq7/Lust.Stories.2018.Hindi.1080p.WEB-DL.DD5.1.H.264-TeamSunny.part3.rar
http://filefloater.com/Tq8/Lust.Stories.2018.Hindi.1080p.WEB-DL.DD5.1.H.264-TeamSunny.part4.rar

887

Dear visitor, you went to the site as unregistered user.
We recommend you to register or enter the site under your name.
Information
Customers are in the group Guests, can not leave comments in the news.
Author: WWWormlGlymn6 July 2018 11:30
Anabolic Steroids For Sale
Buy 100% Legal Steroids

<a href="https://buylegalsteroid.us/#">Legal Steroids</a>
<a href="https://buylegalsteroid.us/#">9 Best Legal Anabolic Steroids For Sale</a>
  • Like
  • 0

Adding a comment
Name:*
E-Mail:
  • winkwinkedsmileam
    belayfeelfellowlaughing
    lollovenorecourse
    requestsadtonguewassat
    cryingwhatbullyangry
Code:
reload, if the code cannot be seen
Enter the code: