Sabse Badhkar Hum 3 (2018) Hindi - 1080p - WEB-HD - AVC - AAC-GM Exclusive
Sabse Badhkar Hum 3 (2018) Hindi - 1080p - WEB-HD - AVC - AAC-GM Exclusive






General
Format                      : MPEG-4
Format profile              : Base Media
Codec ID                    : isom (isom/iso2/avc1/mp41)
File size                   : 1.72 GiB
Duration                    : 1 h 51 min
Overall bit rate mode       : Variable
Overall bit rate            : 2 209 kb/s
Encoded date                : UTC 2018-05-18 23:38:53
Tagged date                 : UTC 2018-05-18 23:38:53

Video
ID                          : 1
Format                      : AVC
Format/Info                 : Advanced Video Codec
Format profile              : High@L4
Format settings, CABAC      : Yes
Format settings, RefFrames  : 3 frames
Codec ID                    : avc1
Codec ID/Info               : Advanced Video Coding
Duration                    : 1 h 51 min
Bit rate                    : 2 078 kb/s
Width                       : 1 920 pixels
Height                      : 1 080 pixels
Display aspect ratio        : 16:9
Frame rate mode             : Constant
Frame rate                  : 25.000 FPS
Color space                 : YUV
Chroma subsampling          : 4:2:0
Bit depth                   : 8 bits
Scan type                   : Progressive
Bits/(Pixel*Frame)          : 0.040
Stream size                 : 1.62 GiB (94%)
Title                       : ISO Media file produced by Google Inc. Created on: 05/18/2018.
Encoded date                : UTC 2018-05-18 23:38:53
Tagged date                 : UTC 2018-05-18 23:38:53
Color range                 : Limited
Color primaries             : BT.709
Transfer characteristics    : BT.709
Matrix coefficients         : BT.709

Audio
ID                          : 2
Format                      : AAC
Format/Info                 : Advanced Audio Codec
Format profile              : LC
Codec ID                    : 40
Duration                    : 1 h 51 min
Bit rate mode               : Variable
Bit rate                    : 128 kb/s
Channel(s)                  : 2 channels
Channel positions           : Front: L R
Sampling rate               : 44.1 kHz
Frame rate                  : 43.066 FPS (1024 SPF)
Compression mode            : Lossy
Stream size                 : 102 MiB (6%)
Title                       : ISO Media file produced by Google Inc. Created on: 05/18/2018.
Language                    : English
Default                     : Yes
Alternate group             : 1
Encoded date                : UTC 2018-05-18 21:20:12
Tagged date                 : UTC 2018-05-18 21:20:12



Sabse Badhkar Hum 3 (2018) Hindi - 1080p - WEB-HD - AVC - AAC-GM ExclusiveSabse Badhkar Hum 3 (2018) Hindi - 1080p - WEB-HD - AVC - AAC-GM ExclusiveSabse Badhkar Hum 3 (2018) Hindi - 1080p - WEB-HD - AVC - AAC-GM ExclusiveSabse Badhkar Hum 3 (2018) Hindi - 1080p - WEB-HD - AVC - AAC-GM ExclusiveSabse Badhkar Hum 3 (2018) Hindi - 1080p - WEB-HD - AVC - AAC-GM ExclusiveSabse Badhkar Hum 3 (2018) Hindi - 1080p - WEB-HD - AVC - AAC-GM ExclusiveSabse Badhkar Hum 3 (2018) Hindi - 1080p - WEB-HD - AVC - AAC-GM ExclusiveSabse Badhkar Hum 3 (2018) Hindi - 1080p - WEB-HD - AVC - AAC-GM ExclusiveSabse Badhkar Hum 3 (2018) Hindi - 1080p - WEB-HD - AVC - AAC-GM Exclusive

SINGLE DIRECT FAST LINKS

http://www.heroupload.us/7a5c2f2a21558927/Sabse.Badhkar.Hum.3.Chinnadana.Nee.Kosam.2018.1080p.WEB-HD.AVC.AAC-GM.Exclusive.MP4



http://filefloater.com/Tb4/Sabse.Badhkar.Hum.3.Chinnadana.Nee.Kosam.2018.1080p.WEB-HD.AVC.AAC-GM.Exclusive.MP4


2886

Dear visitor, you went to the site as unregistered user.
We recommend you to register or enter the site under your name.
Information
Customers are in the group Guests, can not leave comments in the news.
Author: paco3can27 May 2018 20:21 User offline
Download from mirror:

http://thescenebox.com/444162c048d936as/
  • Like
  • 0

Author: paco3can28 May 2018 21:34 User offline
Download from mirror:

http://thescenebox.com/444162c048d936as/
  • Like
  • 0

Author: paco3can3 June 2018 22:58 User offline
DOWNLOAD :

http://thescenebox.com/444162c048d9368b/r352s3f45
http://thescenebox.com/444162c048d9368b/345ds623



Free download Place, Free File Downloads, Free torrent site, Free torrent downloads, Your Torrent engine, yourfilebb20180, yourfilebb280, yourfilebboo0
, Torrent download

DOWNLOAD :

http://thescenebox.com/444162c048d9368b/r352s3f45
http://thescenebox.com/444162c048d9368b/345ds623



Free download Place, Free File Downloads, Free torrent site, Free torrent downloads, Your Torrent engine, yourfilebb20180, yourfilebb280, yourfilebboo0
, Torrent download
  • Like
  • 0

Author: paco3can4 June 2018 13:18 User offline
http://thescenebox.com/444162c048d9368b/r352s3f45
http://thescenebox.com/444162c048d9368b/345ds623



Free download Place, Free File Downloads, Free torrent site, Free torrent downloads, Your Torrent engine, yourfilebb20180, yourfilebb280, yourfilebboo0
, Torrent download
  • Like
  • 0

Adding a comment
Name:*
E-Mail:
  • winkwinkedsmileam
    belayfeelfellowlaughing
    lollovenorecourse
    requestsadtonguewassat
    cryingwhatbullyangry
Code:
reload, if the code cannot be seen
Enter the code: