Parinda (1989) 1080p WebHD AVC AAC ESub-DTOne
Parinda (1989) 1080p WebHD AVC AAC ESub-DTOne






Format                      : Matroska
Format version              : Version 4 / Version 2
File size                  : 6.30 GiB
Duration                    : 2 h 28 min
Overall bit rate            : 6 062 kb/s
Encoded date                : UTC 2016-08-06 09:18:53
Writing application        : mkvmerge v9.3.1 ('Mask Machine') 32bit
Writing library            : libebml v1.3.4 + libmatroska v1.4.5

Video
ID                          : 1
Format                      : AVC
Format/Info                : Advanced Video Codec
Format profile              : High@L4
Format settings            : CABAC / 4 Ref Frames
Format settings, CABAC      : Yes
Format settings, ReFrames  : 4 frames
Codec ID                    : V_MPEG4/ISO/AVC
Duration                    : 2 h 28 min
Bit rate                    : 5 873 kb/s
Width                      : 1 920 pixels
Height                      : 1 080 pixels
Display aspect ratio        : 16:9
Frame rate mode            : Constant
Frame rate                  : 25.000 FPS
Color space                : YUV
Chroma subsampling          : 4:2:0
Bit depth                  : 8 bits
Scan type                  : Progressive
Bits/(Pixel*Frame)          : 0.113
Stream size                : 6.10 GiB (97%)
Writing library            : x264 core 133 r2 a3ac64b
Encoding settings          : cabac=1 / ref=3 / deblock=1:0:0 / analyse=0x3:0x113 / me=hex / subme=7 / psy=1 / psy_rd=1.00:0.00 / mixed_ref=1 / me_range=16 / chroma_me=1 / trellis=1 / 8x8dct=1 / cqm=0 / deadzone=21,11 / fast_pskip=1 / chroma_qp_offset=-2 / threads=12 / lookahead_threads=2 / sliced_threads=0 / nr=0 / decimate=1 / interlaced=0 / bluray_compat=0 / constrained_intra=0 / bframes=3 / b_pyramid=2 / b_adapt=1 / b_bias=0 / direct=1 / weightb=1 / open_gop=0 / weightp=2 / keyint=30 / keyint_min=3 / scenecut=40 / intra_refresh=0 / rc_lookahead=30 / rc=abr / mbtree=1 / bitrate=5873 / ratetol=1.0 / qcomp=0.60 / qpmin=0 / qpmax=69 / qpstep=4 / ip_ratio=1.40 / aq=1:1.00
Default                    : Yes
Forced                      : No

Audio
ID                          : 2
Format                      : AAC
Format/Info                : Advanced Audio Codec
Format profile              : LC
Codec ID                    : A_AAC-2
Duration                    : 2 h 28 min
Bit rate                    : 192 kb/s
Channel(s)                  : 2 channels
Channel positions          : Front: L R
Sampling rate              : 48.0 kHz
Frame rate                  : 46.875 FPS (1024 SPF)
Compression mode            : Lossy
Delay relative to video    : -43 ms
Stream size                : 207 MiB (3%)
Default                    : Yes
Forced                      : No



Parinda (1989) 1080p WebHD AVC AAC ESub-DTOne

SINGLE DIRECT FAST LINKS

http://www.heroupload.us/c4dea68b75269eea/Parinda.1989.1080p.WebHD.AVC.AAC.ESub-DTOne.mkv


1GB LINKS


http://www.heroupload.us/ac2d95a019f49692/Parinda.1989.1080p.WebHD.AVC.AAC.ESub-DTOne.part1.rar
http://www.heroupload.us/d034e48e4c7cf22d/Parinda.1989.1080p.WebHD.AVC.AAC.ESub-DTOne.part2.rar
http://www.heroupload.us/fb5d1c81c7209adf/Parinda.1989.1080p.WebHD.AVC.AAC.ESub-DTOne.part3.rar
http://www.heroupload.us/15bbed7c16a9448f/Parinda.1989.1080p.WebHD.AVC.AAC.ESub-DTOne.part4.rar
http://www.heroupload.us/ae675aa43a2b9300/Parinda.1989.1080p.WebHD.AVC.AAC.ESub-DTOne.part5.rar
http://www.heroupload.us/7e0a875941bbca11/Parinda.1989.1080p.WebHD.AVC.AAC.ESub-DTOne.part6.rar
http://www.heroupload.us/d766b13db913244a/Parinda.1989.1080p.WebHD.AVC.AAC.ESub-DTOne.part7.rar
http://www.heroupload.us/98eaaaf3057a9b79/Parinda.1989.1080p.WebHD.AVC.AAC.ESub-DTOne.srt



http://filefloater.com/1iFF/Parinda.1989.1080p.WebHD.AVC.AAC.ESub-DTOne.part1.rar
http://filefloater.com/SEP/Parinda.1989.1080p.WebHD.AVC.AAC.ESub-DTOne.part2.rar
http://filefloater.com/1iFM/Parinda.1989.1080p.WebHD.AVC.AAC.ESub-DTOne.part3.rar
http://filefloater.com/sE1/Parinda.1989.1080p.WebHD.AVC.AAC.ESub-DTOne.part4.rar
http://filefloater.com/sE3/Parinda.1989.1080p.WebHD.AVC.AAC.ESub-DTOne.part5.rar
http://filefloater.com/SF0/Parinda.1989.1080p.WebHD.AVC.AAC.ESub-DTOne.part6.rar
http://filefloater.com/SF1/Parinda.1989.1080p.WebHD.AVC.AAC.ESub-DTOne.part7.rar
http://filefloater.com/SF2/Parinda.1989.1080p.WebHD.AVC.AAC.ESub-DTOne.srt




631

Dear visitor, you went to the site as unregistered user.
We recommend you to register or enter the site under your name.
Information
Customers are in the group Guests, can not leave comments in the news.
Author: Nanmazfat11 May 2018 12:36
Люди кто желает играть в современные игры на самых высоких настройках с динамичными теняими
даже на самых слабых ПК или ноутах. Без лагов и фризов (Но нужен более менее нормальный инет).
Читайте статья по настройке компа здесь.
Видео по установке и настройке смотрите тут.
Играю уже пол года на ведре 2005 г. Буду рад кому помог разорить буржуев игровой индустрии!!!
  • Like
  • 0

Adding a comment
Name:*
E-Mail:
  • winkwinkedsmileam
    belayfeelfellowlaughing
    lollovenorecourse
    requestsadtonguewassat
    cryingwhatbullyangry
Code:
reload, if the code cannot be seen
Enter the code: