Ram Ratan (2017) 720p - DVDRip - x264 - DD5.1 - M2Tv
Ram Ratan (2017) 720p - DVDRip - x264 - DD5.1 - M2Tv








General
Format : Matroska
Format version : Version 4 / Version 2
File size : 985 MiB
Duration : 1 h 57 min
Overall bit rate : 1 176 kb/s


Video
ID : 1
Format : AVC
Codec ID : V_MPEG4/ISO/AVC
Duration : 1 h 57 min
Bit rate : 950 kb/s
Width : 1 280 pixels
Height : 544 pixels
Display aspect ratio : 2.35:1
Frame rate mode : Constant
Frame rate : 29.970 (30000/1001) FPS
Stream size : 795 MiB (81%)
Title : Mafiaking
Language : Hindi
Default : Yes
Forced : No

Audio
ID : 2
Format : AC-3
Duration : 1 h 57 min
Bit rate mode : Constant
Bit rate : 224 kb/s
Channel(s) : 6 channels
Stream size : 188 MiB (19%)
Title : Mafiaking
Language : Hindi
Service kind : Complete Main
Default : Yes
Forced : No


Ram Ratan (2017) 720p - DVDRip - x264 - DD5.1 - M2TvRam Ratan (2017) 720p - DVDRip - x264 - DD5.1 - M2TvRam Ratan (2017) 720p - DVDRip - x264 - DD5.1 - M2TvRam Ratan (2017) 720p - DVDRip - x264 - DD5.1 - M2TvRam Ratan (2017) 720p - DVDRip - x264 - DD5.1 - M2TvRam Ratan (2017) 720p - DVDRip - x264 - DD5.1 - M2TvRam Ratan (2017) 720p - DVDRip - x264 - DD5.1 - M2TvRam Ratan (2017) 720p - DVDRip - x264 - DD5.1 - M2TvRam Ratan (2017) 720p - DVDRip - x264 - DD5.1 - M2TvRam Ratan (2017) 720p - DVDRip - x264 - DD5.1 - M2Tv

SINGLE DIRECT FAST LINKS

https://www.heroupload.com/36f2b1c4d6c32e13/Ram.Ratan.2017.720p.DVD-Rip.x264.DD5.1.Mafiaking-M2Tv.mkv



http://filefloater.com/9yc/Ram.Ratan.2017.720p.DVD-Rip.x264.DD5.1.Mafiaking-M2Tv.mkv


770

Dear visitor, you went to the site as unregistered user.
We recommend you to register or enter the site under your name.
Information
Customers are in the group Guests, can not leave comments in the news.
Adding a comment
Name:*
E-Mail:
  • winkwinkedsmileam
    belayfeelfellowlaughing
    lollovenorecourse
    requestsadtonguewassat
    cryingwhatbullyangry
Code:
reload, if the code cannot be seen
Enter the code: