Amar Akbar Anthony (1977) 1080p - BluRay - x264 - DTS 5.1 - ESub [TeamHHD]
Amar Akbar Anthony (1977) 1080p - BluRay - x264 - DTS 5.1 - ESub [TeamHHD]






Format                                   : Matroska
Format version                           : Version 4 / Version 2
File size                                : 4.37 GiB
Duration                                 : 2 h 55 min
Overall bit rate                         : 3 578 kb/s
Movie name                               : Amar Akbar Anthony 1977 - M@X @ Hon3y


Video
ID                                       : 1
Format                                   : AVC
Format/Info                              : Advanced Video Codec
Format profile                           : High@L4.1
Format settings                          : CABAC / 4 Ref Frames
Format settings, CABAC                   : Yes
Format settings, RefFrames               : 4 frames
Codec ID                                 : V_MPEG4/ISO/AVC
Duration                                 : 2 h 55 min
Bit rate                                 : 2 807 kb/s
Width                                    : 1 920 pixels
Height                                   : 1 080 pixels
Display aspect ratio                     : 16:9
Frame rate mode                          : Constant
Frame rate                               : 24.000 FPS
Language                                 : Hindi
Default                                  : Yes
Forced                                   : No
Color range                              : Limited
Color primaries                          : BT.709
Transfer characteristics                 : BT.709
Matrix coefficients                      : BT.709

Audio
ID                                       : 2
Format                                   : DTS
Format/Info                              : Digital Theater Systems
Codec ID                                 : A_DTS
Duration                                 : 2 h 55 min
Bit rate mode                            : Constant
Bit rate                                 : 768 kb/s
Channel(s)                               : 6 channels
Channel positions                        : Front: L C R, Side: L R, LFE
Sampling rate                            : 48.0 kHz
Frame rate                               : 93.750 FPS (512 SPF)
Bit depth                                : 24 bits
Compression mode                         : Lossy
Stream size                              : 961 MiB (21%)
Language                                 : Hindi
Default                                  : Yes
Forced                                   : No

Text
ID                                       : 3
Format                                   : UTF-8
Codec ID                                 : S_TEXT/UTF8
Codec ID/Info                            : UTF-8 Plain Text
Duration                                 : 2 h 53 min
Bit rate                                 : 63 b/s
Count of elements                        : 2214
Stream size                              : 80.2 KiB (0%)
Language                                 : English
Default                                  : Yes
Forced                                   : No



Amar Akbar Anthony (1977) 1080p - BluRay - x264 - DTS 5.1 - ESub [TeamHHD]Amar Akbar Anthony (1977) 1080p - BluRay - x264 - DTS 5.1 - ESub [TeamHHD]Amar Akbar Anthony (1977) 1080p - BluRay - x264 - DTS 5.1 - ESub [TeamHHD]Amar Akbar Anthony (1977) 1080p - BluRay - x264 - DTS 5.1 - ESub [TeamHHD]Amar Akbar Anthony (1977) 1080p - BluRay - x264 - DTS 5.1 - ESub [TeamHHD]Amar Akbar Anthony (1977) 1080p - BluRay - x264 - DTS 5.1 - ESub [TeamHHD]


SINGLE DIRECT FAST LINKS

http://filefloater.com/9xe/Amar.Akbar.Anthony.1977.Hindi.1080p.BluRay.x264.DTS.5.1.ESub-HHD.mkv


https://www.heroupload.com/b5d4bcaf6cbd14bd/Amar.Akbar.Anthony.1977.Hindi.1080p.BluRay.x264.DTS.5.1.ESub-HHD.mkv

1GB LINKS


http://filefloater.com/9xf/Amar.Akbar.Anthony.1977.Hindi.1080p.BluRay.x264.DTS.5.1.ESub-HHD.part1.rar
http://filefloater.com/9xg/Amar.Akbar.Anthony.1977.Hindi.1080p.BluRay.x264.DTS.5.1.ESub-HHD.part2.rar
http://filefloater.com/9xh/Amar.Akbar.Anthony.1977.Hindi.1080p.BluRay.x264.DTS.5.1.ESub-HHD.part3.rar
http://filefloater.com/9xi/Amar.Akbar.Anthony.1977.Hindi.1080p.BluRay.x264.DTS.5.1.ESub-HHD.part4.rar
http://filefloater.com/9xj/Amar.Akbar.Anthony.1977.Hindi.1080p.BluRay.x264.DTS.5.1.ESub-HHD.part5.rar



https://www.heroupload.com/5f623c2ed93ba6d9/Amar.Akbar.Anthony.1977.Hindi.1080p.BluRay.x264.DTS.5.1.ESub-HHD.part1.rar
https://www.heroupload.com/26651b3a79faab4b/Amar.Akbar.Anthony.1977.Hindi.1080p.BluRay.x264.DTS.5.1.ESub-HHD.part2.rar
https://www.heroupload.com/c4454d2667698d5d/Amar.Akbar.Anthony.1977.Hindi.1080p.BluRay.x264.DTS.5.1.ESub-HHD.part3.rar
https://www.heroupload.com/3537991e3529927c/Amar.Akbar.Anthony.1977.Hindi.1080p.BluRay.x264.DTS.5.1.ESub-HHD.part4.rar
https://www.heroupload.com/f5fa228d2eb79b39/Amar.Akbar.Anthony.1977.Hindi.1080p.BluRay.x264.DTS.5.1.ESub-HHD.part5.rar

980

Dear visitor, you went to the site as unregistered user.
We recommend you to register or enter the site under your name.
Information
Customers are in the group Guests, can not leave comments in the news.
Adding a comment
Name:*
E-Mail:
  • winkwinkedsmileam
    belayfeelfellowlaughing
    lollovenorecourse
    requestsadtonguewassat
    cryingwhatbullyangry
Code:
reload, if the code cannot be seen
Enter the code: