Rampage (2018) 720p - HDRip - x264 - Esub [Multi Line Audios][Hindi+Telugu+tamil+Eng]
Rampage (2018) 720p - HDRip - x264 - Esub [Multi Line Audios][Hindi+Telugu+tamil+Eng]





General
Format                      : Matroska
Format version              : Version 4 / Version 2
File size                   : 1.03 GiB
Duration                    : 1 h 47 min
Overall bit rate mode       : Variable
Overall bit rate            : 1 381 kb/s
Encoded date                : UTC 2018-06-18 02:21:24
Writing application         : mkvmerge v7.1.0 ('Good Love') 32bit built on Jul 27 2014 12:59:18
Writing library             : libebml v1.3.0 + libmatroska v1.4.1

Video
ID                          : 1
Format                      : AVC
Format/Info                 : Advanced Video Codec
Format profile              : High@L4.1
Format settings, CABAC      : Yes
Format settings, RefFrames  : 5 frames
Codec ID                    : V_MPEG4/ISO/AVC
Duration                    : 1 h 47 min
Bit rate                    : 1 046 kb/s
Width                       : 1 280 pixels
Height                      : 532 pixels
Display aspect ratio        : 2.40:1
Frame rate mode             : Constant
Frame rate                  : 23.976 (24000/1001) FPS
Color space                 : YUV
Chroma subsampling          : 4:2:0
Bit depth                   : 8 bits
Scan type                   : Progressive
Bits/(Pixel*Frame)          : 0.064
Stream size                 : 802 MiB (76%)
Writing library             : x264 core 155 r2893 b00bcaf
Encoding settings           : cabac=1 / ref=5 / deblock=1:0:0 / analyse=0x3:0x113 / me=hex / subme=8 / psy=1 / psy_rd=1.00:0.00 / mixed_ref=1 / me_range=16 / chroma_me=1 / trellis=2 / 8x8dct=1 / cqm=0 / deadzone=21,11 / fast_pskip=1 / chroma_qp_offset=-2 / threads=17 / lookahead_threads=2 / sliced_threads=0 / nr=0 / decimate=1 / interlaced=0 / bluray_compat=0 / constrained_intra=0 / bframes=3 / b_pyramid=2 / b_adapt=1 / b_bias=0 / direct=3 / weightb=1 / open_gop=0 / weightp=2 / keyint=240 / keyint_min=24 / scenecut=40 / intra_refresh=0 / rc_lookahead=50 / rc=2pass / mbtree=1 / bitrate=1046 / ratetol=1.0 / qcomp=0.60 / qpmin=0 / qpmax=69 / qpstep=4 / cplxblur=20.0 / qblur=0.5 / vbv_maxrate=62500 / vbv_bufsize=78125 / nal_hrd=none / filler=0 / ip_ratio=1.40 / aq=1:1.00
Language                    : English
Default                     : Yes
Forced                      : No
Color range                 : Limited
Color primaries             : BT.709
Transfer characteristics    : BT.709
Matrix coefficients         : BT.709

Audio #1
ID                          : 2
Format                      : MPEG Audio
Format version              : Version 2
Format profile              : Layer 3
Mode                        : Joint stereo
Mode extension              : MS Stereo
Codec ID                    : A_MPEG/L3
Codec ID/Hint               : MP3
Duration                    : 1 h 47 min
Bit rate mode               : Variable
Bit rate                    : 96.0 kb/s
Channel(s)                  : 2 channels
Sampling rate               : 16.0 kHz
Frame rate                  : 27.778 FPS (576 SPF)
Compression mode            : Lossy
Stream size                 : 70.3 MiB (7%)
Writing library             : LAME3.99r
Encoding settings           : -m j -V 4 -q 3 -lowpass 8 --abr 96
Language                    : Telugu
Default                     : Yes
Forced                      : No

Audio #2
ID                          : 3
Format                      : MPEG Audio
Format version              : Version 2
Format profile              : Layer 3
Mode                        : Joint stereo
Mode extension              : MS Stereo
Codec ID                    : A_MPEG/L3
Codec ID/Hint               : MP3
Duration                    : 1 h 47 min
Bit rate mode               : Variable
Bit rate                    : 85.6 kb/s
Nominal bit rate            : 96.0 kb/s
Channel(s)                  : 2 channels
Sampling rate               : 16.0 kHz
Frame rate                  : 27.778 FPS (576 SPF)
Compression mode            : Lossy
Stream size                 : 65.7 MiB (6%)
Writing library             : LAME3.99r
Encoding settings           : -m j -V 4 -q 3 -lowpass 8 --abr 96
Language                    : Tamil
Default                     : No
Forced                      : No

Audio #3
ID                          : 4
Format                      : MPEG Audio
Format version              : Version 2
Format profile              : Layer 3
Mode                        : Joint stereo
Mode extension              : MS Stereo
Codec ID                    : A_MPEG/L3
Codec ID/Hint               : MP3
Duration                    : 1 h 47 min
Bit rate mode               : Variable
Bit rate                    : 91.1 kb/s
Nominal bit rate            : 96.0 kb/s
Channel(s)                  : 2 channels
Sampling rate               : 16.0 kHz
Frame rate                  : 27.778 FPS (576 SPF)
Compression mode            : Lossy
Stream size                 : 69.9 MiB (7%)
Writing library             : LAME3.99r
Encoding settings           : -m j -V 4 -q 3 -lowpass 8 --abr 96
Language                    : Hindi
Default                     : No
Forced                      : No

Audio #4
ID                          : 5
Format                      : AAC
Format/Info                 : Advanced Audio Codec
Format profile              : HE-AAC / LC
Codec ID                    : A_AAC
Duration                    : 1 h 47 min
Bit rate                    : 64.0 kb/s
Channel(s)                  : 2 channels
Channel positions           : Front: L R
Sampling rate               : 48.0 kHz / 24.0 kHz
Frame rate                  : 23.438 FPS (1024 SPF)
Compression mode            : Lossy
Delay relative to video     : 31 ms
Stream size                 : 49.1 MiB (5%)
Language                    : English
Default                     : No
Forced                      : No

Text
ID                          : 6
Format                      : UTF-8
Codec ID                    : S_TEXT/UTF8
Codec ID/Info               : UTF-8 Plain Text
Duration                    : 1 h 37 min
Bit rate                    : 55 b/s
Count of elements           : 1257
Stream size                 : 39.8 KiB (0%)
Language                    : English
Default                     : Yes
Forced                      : No

Menu
00:00:00.000                : :1
00:12:58.027                : :2
00:19:56.028                : :3
00:29:53.041                : :4
00:40:35.058                : :5
00:49:10.072                : :6
01:02:38.004                : :7
01:10:37.066                : :8
01:20:10.055                : :9
01:29:23.024                : :10
01:39:42.059                : :11




Rampage (2018) 720p - HDRip - x264 - Esub [Multi Line Audios][Hindi+Telugu+tamil+Eng]Rampage (2018) 720p - HDRip - x264 - Esub [Multi Line Audios][Hindi+Telugu+tamil+Eng]Rampage (2018) 720p - HDRip - x264 - Esub [Multi Line Audios][Hindi+Telugu+tamil+Eng]Rampage (2018) 720p - HDRip - x264 - Esub [Multi Line Audios][Hindi+Telugu+tamil+Eng]Rampage (2018) 720p - HDRip - x264 - Esub [Multi Line Audios][Hindi+Telugu+tamil+Eng]

SINGLE DIRECT FAST LINKS

http://www.heroupload.us/d4d584b078b8df53/Rampage.2018.HDRip.720p.x264.Multi.Audios.Telugu+Tamil+Hindi+English.mkv



http://filefloater.com/Trx/Rampage.2018.HDRip.720p.x264.Multi.Audios.Telugu+Tamil+Hindi+English.mkv





1097

Dear visitor, you went to the site as unregistered user.
We recommend you to register or enter the site under your name.
Information
Customers are in the group Guests, can not leave comments in the news.
Author: WWWormlGlymn6 July 2018 04:01
Shop For The Best Legal Steroids Online
Anabolic Steroids For Sale

<a href="https://buylegalsteroid.us/#">Buy Best Legal Steroids </a>
<a href="https://buylegalsteroid.us/#">How To Buy Legal Steroids</a>
  • Like
  • 0

Adding a comment
Name:*
E-Mail:
  • winkwinkedsmileam
    belayfeelfellowlaughing
    lollovenorecourse
    requestsadtonguewassat
    cryingwhatbullyangry
Code:
reload, if the code cannot be seen
Enter the code: